»
»

Скачать фильм Антарктида. Хождение за три полюса (3 серии из 3) / (Кристина Козлова) [2020, документальный, путешествие, HDTVRip 720p] - торрент

Скачать через торрент фильм вы можете, нажав на синюю кнопку. Фильм доступен на нашем торрент-трекере бесплатно, без регистрации и смс.

Статистика раздачи
11 [ 0 b/s ] ↑ 4.5 GB ↓ 0 [ 0 b/s ]
Автор Сообщение
ARI71
2018-07-05 00:13
Антарктида. Хождение за три полюса (3 серии из 3)
Антарктида. Хождение за три полюса Перевод: Не требуется, cубтитры: отсутствуют
Формат: HDTVRip 720p, MKV, AVC/MPEG4, AC3
Страна: Россия, ООО «РД Студия»
Режиссер: Кристина Козлова
Жанр: документальный, путешествие
Продолжительность: 3 x ~ 00:51:00
Год выпуска: 2020

В ролях: Валдис Пельш, Кристина Козлова, Александр Кубасов, Денис Негривецкий, Василий Елагин, Владимир Обиход, Алексей Макаров, Алексей Туркеев, Алексей Рыжов, Алексей Екайкин, Владимир Липенков, Андрей Миракин

Описание: Антарктида – самый таинственный и малоизученный континент планеты. Величайшая пустыня мира и… самый большой запас пресной воды на Земле. Самое холодное место на Земле, в глубине которого находится… Южный полюс. Место парадоксов и загадок. Уникальные природные условия, которые не встретить больше нигде. 200 лет с момента открытия Антарктида будоражит воображение ученых, мореплавателей, романтиков и просто искателей приключений. Сюда едут не только за новыми знаниями или рекордами. Испытать себя и технику, почувствовать ледяное дыхание Антарктиды, понять, кто ты и чего на самом деле стоишь. Наша команда в составе семи человек во главе с автором идеи, ведущим Валдисом Пельшем отправилась к Южному континенту, чтобы осуществить то, чего до нас еще никто не совершал, – первый в истории трансантарктический переход через три полюса. На своем, отечественном, транспорте, только на своем горючем и запасах еды. В автономном режиме. Рассчитывая только на свои силы.

Видео: 1280x720 (16:9), 25 fps, AVC MPEG-4 (High@L3.1) ~3800 kbps avg, 0.16 bit/pixel
Аудио: 48 kHz, AC3, 2 ch, ~192 kbps

Релиз от: Алехаndr
MediaInfo
Код:
Общее
Уникальный идентификатор : 272240079156144708685072188559036774727 (0xCCCF88347D28858C60231D80F34FF947)
Полное имя : Антарктида. Хождение за три полюса (2020).by.Алехаndr\«Антарктида Хождение за три полюса» Фильм 1.by.Алехаndr.mkv
Формат : Matroska
Версия формата : Version 4
Размер файла : 1,65 Гбайт
Продолжительность : 59 м. 43 с.
Общий поток : 3955 Кбит/сек
Программа кодирования : Lavf58.20.100
Библиотека кодирования : Lavf58.20.100
ErrorDetectionType : Per level 1

Видео
Идентификатор : 1
Формат : AVC
Формат/Информация : Advanced Video Codec
Профиль формата : High@L3.1
Настройки формата : CABAC / 4 Ref Frames
Параметр CABAC формата : Да
Параметр RefFrames формата : 4 кадра
Параметр GOP формата : M=4, N=25
Идентификатор кодека : V_MPEG4/ISO/AVC
Продолжительность : 59 м. 43 с.
Битрейт : 3800 Кбит/сек
Ширина : 1280 пикселей
Высота : 720 пикселей
Соотношение сторон : 16:9
Режим частоты кадров : Постоянный
Частота кадров : 25,000 кадров/сек
Цветовое пространство : YUV
Субдискретизация насыщенности : 4:2:0
Битовая глубина : 8 бит
Тип развёртки : Прогрессивная
Бит/(Пиксели*Кадры) : 0.165
Размер потока : 1,54 Гбайт (93%)
Библиотека кодирования : x264 core 157
Настройки программы : cabac=1 / ref=3 / deblock=1:0:0 / analyse=0x3:0x133 / me=hex / subme=9 / psy=1 / psy_rd=1.00:0.00 / mixed_ref=1 / me_range=16 / chroma_me=1 / trellis=1 / 8x8dct=1 / cqm=0 / deadzone=21,11 / fast_pskip=1 / chroma_qp_offset=-2 / threads=22 / lookahead_threads=1 / sliced_threads=0 / nr=0 / decimate=1 / interlaced=0 / bluray_compat=0 / constrained_intra=0 / bframes=3 / b_pyramid=2 / b_adapt=1 / b_bias=0 / direct=1 / weightb=1 / open_gop=0 / weightp=2 / keyint=25 / keyint_min=13 / scenecut=0 / intra_refresh=0 / rc_lookahead=25 / rc=abr / mbtree=1 / bitrate=3800 / ratetol=1.0 / qcomp=0.60 / qpmin=0 / qpmax=40 / qpstep=4 / vbv_maxrate=4500 / vbv_bufsize=3800 / nal_hrd=none / filler=0 / ip_ratio=1.41 / aq=1:1.00
Default : Да
Forced : Нет

Аудио
Идентификатор : 2
Формат : AC-3
Формат/Информация : Audio Coding 3
Коммерческое название : Dolby Digital
Идентификатор кодека : A_AC3
Продолжительность : 59 м. 43 с.
Вид битрейта : Постоянный
Битрейт : 192 Кбит/сек
Каналы : 2 канала
Channel layout : L R
Частота : 48,0 КГц
Частота кадров : 31,250 кадров/сек (1536 SPF)
Битовая глубина : 16 бит
Метод сжатия : С потерями
Задержка видео : -80 мс.
Размер потока : 82,0 Мбайт (5%)
ServiceKind/String : Complete Main
Default : Да
Forced : Нет

Информация о торренте:
Размер содержимого: 4.5 GB
Скачан: 178 раз
Статус: Проверен
Зарегистрирован на трекере: 2020-01-28 00:21
Скачать торрент


Поддержи раздачу — поставь лайк:
Писать комментарии на нашем торрент-трекере могут только зарегистрированные пользователи.
Зарегистрируйтесь или авторизируйтесь на сайте.