»
»

Скачать фильм Андрей Тарковский. Трудно быть богом (Ирина Голубева) / [2019, документальный, биография, кинематограф, WEB-DLRip 720p] - торрент

Нажмите на синюю кнопку, чтобы скачать фильм через торрент бесплатно. Фильм доступен на нашем торрент-трекере бесплатно, без регистрации и смс.

Статистика раздачи
65 [ 0 b/s ] ↑ 1.2 GB ↓ 0 [ 0 b/s ]
Автор Сообщение
ARI71
2018-06-17 20:46
Андрей Тарковский. Трудно быть богом
Андрей Тарковский. Трудно быть богом Перевод: Не требуется, cубтитры: отсутствуют
Формат: WEB-DLRip 720p, MКV, AVC/MPEG4, AAC
Страна: Россия, Телерадиокомпания «Останкино», Первый канал
Режиссер: Ирина Голубева
Жанр: документальный, биография, кинематограф
Продолжительность: 00:52:29
Год выпуска: 2019

В ролях: Дарья Приставко, Наталья Бондарчук, Ольга Суркова, Николай Бурляев, Алиса Фрейндлих, Сергей Соловьев, Марлен Хуциев, Филипп Янковский, Лариса Солоницына

Описание: Андрей Тарковский — самый знаменитый русский режиссер в мире, которого еще при жизни называли гением. Он снял не так много картин, но все они стали классикой мирового кинематографа. «Андрей Рублев», «Солярис», «Зеркало», «Сталкер»… Казалось, он создавал свои фильмы из воздуха, воды и огня, из глубинных эмоций и даже собственных снов. Это предельно искреннее, исповедальное искусство, но… каков творец, создававший его?! Каким был этот бог, проживший смертную жизнь человека со своими слабостями, страхами, сомнениями? Мы впервые расскажем о настоящем Андрее Тарковском, приоткроем завесу его странных, загадочных и очень личных миров.

Андре́й Арсе́ньевич Тарко́вский — (4 апреля 1932, село Завражье, Юрьевецкий район, Ивановская Промышленная область — 29 декабря 1986, Париж, Франция) — советский режиссёр театра и кино, сценарист. Народный артист РСФСР (1980).


Видео: 1280x720 (16:9), 25 fps, AVC MPEG-4 (High@L4.1) ~3200 kbps avg, 0.13 bit/pixel
Аудио: 48 kHz, AAC (LC), 2 ch, ~192 kbps

MediaInfo
Код:
Общее
Уникальный идентификатор : 39540594011839812130398133866114854336 (0x1DBF3DCC90003BDB31BEDAF6921C2DC0)
Полное имя : Тарковский.Трудно.быть.Богом.2019.WEBDL.720p-ylnian.mkv
Формат : Matroska
Версия формата : Version 4
Размер файла : 1,20 Гбайт
Продолжительность : 52 м. 29 с.
Общий поток : 3261 Кбит/сек
Дата кодирования : UTC 2019-12-30 14:32:03
Программа кодирования : mkvmerge v41.0.0 ('Smarra') 64-bit
Библиотека кодирования : libebml v1.3.9 + libmatroska v1.5.2

Видео
Идентификатор : 1
Формат : AVC
Формат/Информация : Advanced Video Codec
Профиль формата : High@L4.1
Настройки формата : CABAC / 4 Ref Frames
Параметр CABAC формата : Да
Параметр RefFrames формата : 4 кадра
Идентификатор кодека : V_MPEG4/ISO/AVC
Продолжительность : 52 м. 29 с.
Вид битрейта : Постоянный
Битрейт : 3200 Кбит/сек / 3200 Кбит/сек
Ширина : 1280 пикселей
Высота : 720 пикселей
Соотношение сторон : 16:9
Режим частоты кадров : Постоянный
Частота кадров : 25,000 кадров/сек
Цветовое пространство : YUV
Субдискретизация насыщенности : 4:2:0
Битовая глубина : 8 бит
Тип развёртки : Прогрессивная
Бит/(Пиксели*Кадры) : 0.139
Размер потока : 1,12 Гбайт (94%)
Библиотека кодирования : x264 core 148
Настройки программы : cabac=1 / ref=2 / deblock=1:0:0 / analyse=0x3:0x113 / me=hex / subme=6 / psy=1 / psy_rd=1.00:0.00 / mixed_ref=1 / me_range=16 / chroma_me=1 / trellis=1 / 8x8dct=1 / cqm=0 / deadzone=21,11 / fast_pskip=1 / chroma_qp_offset=-2 / threads=1 / lookahead_threads=1 / sliced_threads=0 / nr=0 / decimate=1 / interlaced=0 / bluray_compat=0 / constrained_intra=0 / bframes=3 / b_pyramid=2 / b_adapt=1 / b_bias=0 / direct=1 / weightb=1 / open_gop=0 / weightp=1 / keyint=250 / keyint_min=25 / scenecut=0 / intra_refresh=0 / rc_lookahead=30 / rc=cbr / mbtree=1 / bitrate=3200 / ratetol=1.0 / qcomp=0.60 / qpmin=0 / qpmax=69 / qpstep=4 / vbv_maxrate=3200 / vbv_bufsize=1600 / nal_hrd=cbr / filler=1 / ip_ratio=1.40 / aq=1:1.00
Язык : Russian
Default : Да
Forced : Нет

Аудио
Идентификатор : 2
Формат : AAC LC
Формат/Информация : Advanced Audio Codec Low Complexity
Идентификатор кодека : A_AAC-2
Продолжительность : 52 м. 29 с.
Битрейт : 192 Кбит/сек
Каналы : 2 канала
Channel layout : L R
Частота : 48,0 КГц
Частота кадров : 46,875 кадров/сек (1024 SPF)
Метод сжатия : С потерями
Задержка видео : -101 мс.
Размер потока : 72,1 Мбайт (6%)
Язык : Russian
Default : Да
Forced : Нет

Информация о торренте:
Размер содержимого: 1.2 GB
Скачан: 198 раз
Статус: Проверен
Зарегистрирован на трекере: 2020-01-18 22:02
Скачать торрент


Поддержи раздачу — поставь лайк:
Писать комментарии на нашем торрент-трекере могут только зарегистрированные пользователи.
Зарегистрируйтесь или авторизируйтесь на сайте.