»
»

Скачать сериал Практика (2 сезон 1-40 серии из 40) Второй сезон (Андрей Силкин) / [2018, драма, WEB-DLRip-AVC] - торрент

Бесплатные торренты всегда на нашем сайте и в хорошем качестве! Сериал доступен на нашем торрент-трекере бесплатно, без регистрации и смс.

Статистика раздачи
44 [ 0 b/s ] ↑ 24.7 GB ↓ 0 [ 0 b/s ]
Автор Сообщение
BLIZNEC W
2018-05-15 14:17
Практика (2 сезон 1-40 серии из 40) Второй сезон
Практика Перевод: Не требуется, cубтитры: отсутствуют
Формат: WEB-DLRip-AVC, MKV, H.264, AC3
Страна: Россия
Режиссер: Андрей Силкин
Жанр: драма
Всего серий: 40
Продолжительность: 40 х ~ 00:46:00
Год выпуска: 2018

В ролях: Ксения Лаврова-Глинка, Эльдар Лебедев, Пётр Баранчеев, Ольга Чудакова, Иван Шибанов, Елизавета Лотова, Максим Костромыкин, Дарья Хорошилова, Ирина Чипиженко, Лилия Кондрова, Олег Шкловский, Борис Хвошнянский, Вячеслав Жолобов, Эдуард Айткулов, Руслан Щедрин, Олег Морозов, Михаил Волков (II), Антон Зиновьев, Антон Ансимов, Владимир Носик, Светлана Малахова, Семён Шемес, Дарья Фекленко, Алексей Тихонов, Полина Стремоусова, Алексей Шемес, Иван Агапов, Евгений Михеев, Алёна Ковалёва, Алексей Кузьмин, Александр Мякушко, Наталия Гаранина, Галина Чурилина, Илья Ильиных, Мария Палей, Александр Присмотров-Белов, Михаил Присмотров-Белов, Ксения Щербакова, Дарья Мингазетдинова, Сергей Погосян, Дмитрий Ратомский, Евгений Харитонов (II), Веста Буркот, Евгений Дакот, Валерия Бурдужа, Николай Хмелёв (II), Анастасия Чиркина, Евгений Штырбул, Надежда Подъяпольская, Александр Жоголь, Надежда Аникина, Николай Аверюшкин, Анна Васильева (IV), Александр Лимин, Евгений Бакалов, Олег Аккузин, Вероника Кузнецова, Анастасия Калашникова, Кирилл Чернышенко, Сергей Воронов (III), Марина Поляк, Мария Гамаюн, Елена Ордынская, Лада Чуровская, Андрей Москвичёв, Юлия Хамитова, Екатерина Коновалова, Александра Скачкова, Юлия Полынская, Александр Андриенко

Описание: Прошел год. В Приемном отделении по-прежнему ни минуты покоя. У каждого пациента – своя боль, а Женя, Илья, Оля и Слава делают все, чтобы спасти каждого. Завтра у Жени и Ильи важный день – их свадьба. Кажется, что все препятствия, наконец, позади. Даже Степан делает вид, что смирился. Из-за рецидива болезни Гиппократ вынужден оставить работу. На его место приходит Павел Грачев – бывший учитель Жени и ее первая любовь. Степан занимается поиском маньяка. В ход расследования активно вмешивается журналистка Вика. Но вскоре становится понятно, что она хочет помочь Илье, потому что влюблена в него.
«Спасая жизни»
Рейтинг и доп. информация:


Видео: 1024x576 (16:9), 25 fps, AVC MPEG-4 (x264), High@L4.1 ~ 1600 kbps , 0.109 bit/pixel
Аудио: 48 kHz, AC3, 2/0 (L,R) ch, ~192 kbps
MediaInfo
Общее
Уникальный идентификатор : 200464162720482174269948649740411168470 (0x96CFFE4DE38A42788EACB6C0004D66D6)
Полное имя : C:\Практика.S02.(2018).WEB-DLRip.(AVC).Files-x\01.Практика 2.(2018).WEB-DLRip.(AVC).by.Серый1779.Files-x.mkv
Формат : Matroska
Версия формата : Version 2
Размер файла : 595 Мбайт
Продолжительность : 46 м. 21 с.
Общий поток : 1793 Кбит/сек
Дата кодирования : UTC 2018-05-15 01:45:41
Программа кодирования : mkvmerge v7.8.0 ('River Man') 32bit built on Apr 3 2015 12:11:22
Библиотека кодирования : libebml v1.3.1 + libmatroska v1.4.2

Видео
Идентификатор : 1
Формат : AVC
Формат/Информация : Advanced Video Codec
Профиль формата : High@L4.1
Настройки формата : CABAC / 9 Ref Frames
Параметр CABAC формата : Да
Параметр RefFrames формата : 9 кадров
Идентификатор кодека : V_MPEG4/ISO/AVC
Продолжительность : 46 м. 21 с.
Битрейт : 1600 Кбит/сек
Ширина : 1024 пикселя
Высота : 576 пикселей
Соотношение сторон : 16:9
Режим частоты кадров : Постоянный
Частота кадров : 25,000 кадров/сек
Цветовое пространство : YUV
Субдискретизация насыщенности : 4:2:0
Битовая глубина : 8 бит
Тип развёртки : Прогрессивная
Бит/(Пиксели*Кадры) : 0.109
Размер потока : 519 Мбайт (87%)
Библиотека кодирования : x264 core 146 r2538 121396c
Настройки программы : cabac=1 / ref=9 / deblock=1:-2:-1 / analyse=0x3:0x133 / me=umh / subme=9 / psy=1 / psy_rd=1.00:0.15 / mixed_ref=1 / me_range=32 / chroma_me=1 / trellis=2 / 8x8dct=1 / cqm=0 / deadzone=21,11 / fast_pskip=0 / chroma_qp_offset=-3 / threads=18 / lookahead_threads=3 / sliced_threads=0 / nr=0 / decimate=1 / interlaced=0 / bluray_compat=0 / constrained_intra=0 / bframes=9 / b_pyramid=2 / b_adapt=2 / b_bias=0 / direct=1 / weightb=1 / open_gop=0 / weightp=2 / keyint=250 / keyint_min=25 / scenecut=40 / intra_refresh=0 / rc=2pass / mbtree=0 / bitrate=1600 / ratetol=1.0 / qcomp=0.60 / qpmin=0 / qpmax=69 / qpstep=4 / cplxblur=20.0 / qblur=0.5 / ip_ratio=1.40 / pb_ratio=1.30 / aq=2:1.00
Default : Да
Forced : Нет
Цветовой диапазон : Limited
Основные цвета : BT.709
Характеристики трансфера : BT.709
Коэффициенты матрицы : BT.709

Аудио
Идентификатор : 2
Формат : AC-3
Формат/Информация : Audio Coding 3
Идентификатор кодека : A_AC3
Продолжительность : 46 м. 21 с.
Вид битрейта : Постоянный
Битрейт : 192 Кбит/сек
Каналы : 2 канала
Расположение каналов : Front: L R
Частота : 48,0 КГц
Частота кадров : 31,250 кадров/сек (1536 SPF)
Битовая глубина : 16 бит
Метод сжатия : С потерями
Размер потока : 63,7 Мбайт (11%)
ServiceKind/String : Complete Main
Default : Да
Forced : Нет

Информация о торренте:
Размер содержимого: 24.7 GB
Скачан: 114 раз
Статус: Проверен
Зарегистрирован на трекере: 2020-04-30 08:50
Скачать торрент


Поддержи раздачу — поставь лайк:
BLIZNEC W
2018-05-15 13:17
Интересного и приятного просмотра!!!

Мои раздачи
graver60
2018-06-09 20:12
Так всё прекратили сериал? А понравился...
BLIZNEC W
2020-04-30 08:51
graver60 написал(а):
Так всё прекратили сериал? А понравился...
Пожалуйста, продолжение!
Писать комментарии на нашем торрент-трекере могут только зарегистрированные пользователи.
Зарегистрируйтесь или авторизируйтесь на сайте.