»
»

Скачать фильм Грим в кино. Искусство грима / Fantastic Flesh. The Art of Make-Up EFX (Starz Inside: Fantastic Flesh) / (Кевин Ванхук) [2008, документальный, кинематограф, HDTVRip 720p] MVO - торрент

Скачать фильм через торрент бесплатно. Фильм доступен на нашем торрент-трекере бесплатно, без регистрации и смс.

Статистика раздачи
11 [ 0 b/s ] ↑ 1.7 GB ↓ 0 [ 0 b/s ]
Автор Сообщение
ARI71
2018-05-04 11:19
Грим в кино. Искусство грима / Fantastic Flesh. The Art of Make-Up EFX (Starz Inside: Fantastic Flesh)
Грим в кино. Искусство грима / Fantastic Flesh. The Art of Make-Up EFX Перевод: Профессиональный (многоголосый, закадровый), cубтитры: отсутствуют
Формат: HDTVRip 720p, MKV, AVC/MPEG4, AC3
Страна: США, Strarz
Режиссер: Кевин Ванхук
Жанр: документальный, кинематограф
Продолжительность: 00:58:14
Год выпуска: 2008

В ролях: Джон Карпентер, Джош Бролин, Уэс Крэйвен, Джо Данте, Джон Лэндис, Грег Никотеро, Роберт Родриес, Джордж А. Ромеро, Том Савини, Квентин Тарантино

Описание: Грим является одной из составляющих успеха фильма. Сейчас в век компьютерной графики и спецэффектов мы уже наверное забыли о том, что когда то на артистов накладывали килограммы грима, делали ужасные маски и впечатляющие костюмы.



Видео: 1280x720 (16:9), 25 fps, AVC MPEG-4 (High@L4.1) ~4000 kbps avg, 0.17 bit/pixel
Аудио: 48 kHz, AC3, 2 ch, ~192.00 kbps avg

Доп. инфо о переводе: Студия NOVAMEDIA по заказу компании Amedia TV
Автор рипа: lrn

MediaInfo
Код:
Общее
Уникальный идентификатор : 189958567188152999517791871217162779292 (0x8EE8B07443B7DCADA71D4C87B62BFA9C)
Полное имя : F:\Starz.Inside.Fantastic.Flesh.2008.HDTV.720p.x264-RUS-lrn.mkv
Формат : Matroska
Версия формата : Version 4
Размер файла : 1,71 Гбайт
Продолжительность : 58 м. 14 с.
Общий поток : 4194 Кбит/сек
Название фильма : 'Starz.Inside.Fantastic.Flesh.2008.HDTV.720p.x264-RUS' by lrn © 2015
Дата кодирования : UTC 2010-02-22 21:41:31
Программа кодирования : mkvmerge v5.9.0 ('On The Loose') built on Dec 9 2012 15:37:01
Библиотека кодирования : libebml v1.3.0 + libmatroska v1.4.0

Видео
Идентификатор : 1
Формат : AVC
Формат/Информация : Advanced Video Codec
Профиль формата : High@L4.1
Настройки формата : CABAC / 6 Ref Frames
Параметр CABAC формата : Да
Параметр RefFrames формата : 6 кадров
Идентификатор кодека : V_MPEG4/ISO/AVC
Продолжительность : 58 м. 14 с.
Битрейт : 4000 Кбит/сек
Ширина : 1280 пикселей
Высота : 720 пикселей
Соотношение сторон : 16:9
Режим частоты кадров : Постоянный
Частота кадров : 25,000 кадров/сек
Цветовое пространство : YUV
Субдискретизация насыщенности : 4:2:0
Битовая глубина : 8 бит
Тип развёртки : Прогрессивная
Бит/(Пиксели*Кадры) : 0.174
Размер потока : 1,63 Гбайт (95%)
Библиотека кодирования : x264 core 142 r2431 ac76440
Настройки программы : cabac=1 / ref=6 / deblock=1:0:0 / analyse=0x3:0x133 / me=umh / subme=9 / psy=1 / psy_rd=1.00:0.00 / mixed_ref=1 / me_range=24 / chroma_me=1 / trellis=2 / 8x8dct=1 / cqm=0 / deadzone=21,11 / fast_pskip=1 / chroma_qp_offset=-2 / threads=12 / lookahead_threads=1 / sliced_threads=0 / nr=0 / decimate=1 / interlaced=0 / bluray_compat=0 / constrained_intra=0 / bframes=6 / b_pyramid=2 / b_adapt=2 / b_bias=0 / direct=3 / weightb=1 / open_gop=0 / weightp=2 / keyint=250 / keyint_min=25 / scenecut=40 / intra_refresh=0 / rc_lookahead=50 / rc=2pass / mbtree=1 / bitrate=4000 / ratetol=1.0 / qcomp=0.60 / qpmin=0 / qpmax=69 / qpstep=4 / cplxblur=20.0 / qblur=0.5 / ip_ratio=1.40 / aq=1:1.00
Default : Да
Forced : Нет

Аудио
Идентификатор : 2
Формат : AC-3
Формат/Информация : Audio Coding 3
Коммерческое название : Dolby Digital
Идентификатор кодека : A_AC3
Продолжительность : 58 м. 14 с.
Вид битрейта : Постоянный
Битрейт : 192 Кбит/сек
Каналы : 2 канала
Channel layout : L R
Частота : 48,0 КГц
Частота кадров : 31,250 кадров/сек (1536 SPF)
Битовая глубина : 16 бит
Метод сжатия : С потерями
Размер потока : 80,0 Мбайт (5%)
ServiceKind/String : Complete Main
Default : Да
Forced : Нет

Информация о торренте:
Размер содержимого: 1.7 GB
Скачан: 264 раза
Статус: Проверен
Зарегистрирован на трекере: 2020-01-21 23:36
Скачать торрент


Поддержи раздачу — поставь лайк:
Писать комментарии на нашем торрент-трекере могут только зарегистрированные пользователи.
Зарегистрируйтесь или авторизируйтесь на сайте.