»
»

Скачать сериал Пять минут тишины (2 сезон 1-24 серии из 24) Возвращение (Алексей Праздников, Игорь Драка, Гузэль Киреева) / [2018-2019, боевик, драма, HDTV 1080p] - торрент

Нажмите синюю кнопку, чтобы cкачать бесплатно через торрент сериал. Сериал доступен на нашем торрент-трекере бесплатно, без регистрации и смс.

Статистика раздачи
98 [ 2.0 MB/s ] ↑ 55.9 GB ↓ 2 [ 0 b/s ]
Автор Сообщение
BLIZNEC W
2018-04-24 14:18
Пять минут тишины (2 сезон 1-24 серии из 24) Возвращение
Пять минут тишины Перевод: Не требуется, cубтитры: отсутствуют
Формат: HDTV 1080p, MKV, H.264, AC3
Страна: Россия
Режиссер: Алексей Праздников, Игорь Драка, Гузэль Киреева
Жанр: боевик, драма
Всего серий: 24
Продолжительность: 24 х ~ 00:48:00
Год выпуска: 2018-2019

В ролях: Игорь Лифанов, Роман Курцын, Анна Пескова, Евгения Дмитриева, Олег Андреев, Константин Воробьёв, Анастасия Стежко, Ярослав Жалнин, Артур Ваха, Виталий Такс, Кирилл Жандаров, Александр Кудренко, Кира Кауфман, Игорь Головин, Нелли Попова, Арсений Бородин (II), Алёна Савастова, Дуня Тарасова, Артур Федынко, Сергей Бледных, Сергей Гамов, Сергей Стукалов, Борис Матвеев, Михаил Шеломенцев, Светлана Бакулина, Андрей Аверков, Вячеслав Карпов, Георгий Худницкий, Алла Вербицкая, Светлана Смирнова-Кацагаджиева, Анастасия Тюнина, Галина Мочалова, Ольга Сухорукова, Галина Петрова (VI), Илья Борисов, Алексей Макрецкий, Алексей Шишигин, Булат Шамсутдинов, Юрий Жалобов, Надежда Страшко, Андрей Зарубин (II), Андрей Лёвин, Михаил Сидаш, Никита Барсуков, Антон Сычёв, Ольга Кожевникова, Артём Франк, Антон Чернов, Николай Калмыков, Ольга Калмыкова, Александр Дергапутский, Владимир Петров (VIII), Александра Мамкаева, Владимир Борисов (II), Сергей Евсеев, Михаил Самочко, Наталья Мызникова, Анастасия Забирова, Михаил Трясоруков, Евгений Александров, Игорь Ботвин, Сергей Занин, Олег Хамитов, Георгий Маришин, Алексей Манцыгин, Екатерина Ирко, Антон Багмет, Дмитрий Фофанов, Дмитрий Михайло, Андрей Струговец

Описание: Продолжение истории о героических буднях бойцов поисково-спасательного отряда 42-21 «МЧС Карелия», которые каждый день, рискуя жизнью, спасают жизни других людей. Александру Греку и его коллегам придется столкнуться с новыми происшествиями и спасти десятки человеческих жизней. Как всегда, отряд 42-21 решает проблемы с невероятной смекалкой и находит выход в самых безнадежных жизненных ситуациях. На службе им нет равных, но смогут ли друзья разобраться в собственных отношениях и чувствах.

Рейтинг и доп. информация:


Видео: 1920x1080 (16:9), 25 fps, AVC MPEG-4 (x264), High@L4.1 ~ 7050 kbps , 0.136 bit/pixel
Аудио: 48 kHz, АС3, 2/0 (L,R), ~192.00 kbps avg
MediaInfo
Общее
Уникальный идентификатор : 194914012210824097382595503339784327874 (0x92A312C1CE65CAF988CCA8D2903F52C2)
Полное имя : C:\Pyat minut tishiny Vozvrashhenie S02 2018.HDTV 1080p.R.G.Generalfilm\Pyat minut tishiny Vozvrashhenie.s02.e01.2018.HDTV 1080p.by.White Smoke.R.G.Generalfilm.mkv
Формат : Matroska
Версия формата : Version 4 / Version 2
Размер файла : 2,41 Гбайт
Продолжительность : 47 м. 45 с.
Режим общего битрейта : Постоянный
Общий поток : 7222 Кбит/сек
Название фильма : Pyat minut tishiny Vozvrashhenie.s02.e01.2018.HDTV 1080p.by.White Smoke.R.G.Generalfilm.mkv
Дата кодирования : UTC 2018-04-24 08:48:26
Программа кодирования : mkvmerge v6.8.0 ('Theme for Great Cities') 64bit built on Mar 2 2014 21:34:26
Библиотека кодирования : libebml v1.3.0 + libmatroska v1.4.1

Видео
Идентификатор : 1
Формат : AVC
Формат/Информация : Advanced Video Codec
Профиль формата : High@L4.1
Настройки формата : CABAC / 3 Ref Frames
Параметр CABAC формата : Да
Параметр RefFrames формата : 3 кадра
Идентификатор кодека : V_MPEG4/ISO/AVC
Продолжительность : 47 м. 45 с.
Вид битрейта : Постоянный
Битрейт : 7050 Кбит/сек
Ширина : 1920 пикселей
Высота : 1080 пикселей
Соотношение сторон : 16:9
Режим частоты кадров : Постоянный
Частота кадров : 25,000 кадров/сек
Стандарт вещания : PAL
Цветовое пространство : YUV
Субдискретизация насыщенности : 4:2:0
Битовая глубина : 8 бит
Тип развёртки : Прогрессивная
Бит/(Пиксели*Кадры) : 0.136
Размер потока : 2,30 Гбайт (95%)
Default : Да
Forced : Нет
Цветовой диапазон : Limited
Основные цвета : BT.709
Характеристики трансфера : BT.709
Коэффициенты матрицы : BT.709

Аудио
Идентификатор : 2
Формат : AC-3
Формат/Информация : Audio Coding 3
Идентификатор кодека : A_AC3
Продолжительность : 47 м. 45 с.
Вид битрейта : Постоянный
Битрейт : 192 Кбит/сек
Каналы : 2 канала
Расположение каналов : Front: L R
Частота : 48,0 КГц
Частота кадров : 31,250 кадров/сек (1536 SPF)
Битовая глубина : 16 бит
Метод сжатия : С потерями
Размер потока : 65,6 Мбайт (3%)
ServiceKind/String : Complete Main
Default : Да
Forced : Нет

Информация о торренте:
Размер содержимого: 55.9 GB
Скачан: 356 раз
Статус: Проверен
Зарегистрирован на трекере: 2019-03-02 15:26
Скачать торрент


Поддержи раздачу — поставь лайк:
BLIZNEC W
2018-04-24 13:19
Интересного и приятного просмотра!!!

Мои раздачи
tanya321rambler
2018-05-01 11:55
очень хороший сериал
asosna
2018-05-15 22:52
Сериал просто СУПЕР!
Второй сезон ничуть не хуже первого, как будто все вжились в свои роли.
Его бы по общим каналам прокрутили, всем бы понравился. и детям очень полезен на мой взгляд.
OsoJocoso
2019-03-02 17:19
Отличный сериал. Оба сезона супер.
Писать комментарии на нашем торрент-трекере могут только зарегистрированные пользователи.
Зарегистрируйтесь или авторизируйтесь на сайте.