»
»

Скачать мультфильм Тарантула, 1 сезон 1-7 серии из 10 / Tarantula (Карсон Мелл) [2017, Мультфильм, комедия, WEB-DL 1080p] MVO +Original - торрент

Скачать мультфильм бесплатно через торрент. Мультфильм доступен на нашем торрент-трекере бесплатно, без регистрации и смс.

Статистика раздачи
4 [ 0 b/s ] ↑ 4.9 GB ↓ 0 [ 0 b/s ]
Автор Сообщение
NewSation
2018-04-07 03:39
Тарантула / Tarantula
Тарантула, 1 сезон 1-7 серии из 10 / Tarantula
Перевод: Любительский (многоголосый, закадровый), [NewStation]
Субтитры: Английские
Формат: WEB-DL 1080p, MKV, H.264, AC3
Страна: США
Режиссер: Карсон Мелл
Жанр: Мультфильм, комедия
Продолжительность: 7 x ~00:21:00
Год выпуска: 2017



В ролях: Карсон Мелл, Дэн Баккедаль, Джейкоб Варгас, Лорен Уидман, Фил ЛаМарр, Тати Габриэль, Стив Джонс, Тоби Хасс, Дэвид Херман, Рики Линдхоум

Описание: Получасовая анимация Карсона Мэла - "Тарантула".
Место действия происходит в Отеле Тиерра Чула или как его называют местные "Тарантула". Главный персонаж - Эхо Джонсон. Уважаемый, но не сертифицированный тату-мастер, который разбавляет сцену абсурдными диалогами. Эхо рассказывает бессвязные сказки о его приключениях с другими постояльцами такими как Лукас (писатель-фантаст) и (водитель хлебного фургона) Жопа.
Жопа - чувствительный вокалист и Бэсс - дама чья жесткость выкована в местных захудалых барах, которые участвуют в ныряниях в мусорки и прочих сомнительных актах озорства.


Видео: 1920x1080p. (16:9), 29.970 fps, AVC (х264) High@L4, ~4500 Kbps, 0.072 bit/pixel
Аудио #1: Русский: 48 kHz, AC3 Dolby Digital, 2/0 (L,R) ch, 256 kbps [Любительский (многоголосый, закадровый)] [NewStation]
Аудио #2: Английский: 44 kHz, AAC, 2/0 (L,R) ch, 126 kbps [Original]

Доп. информация:
Внимание! Присутствует ненормативная лексика.
Реклама: Отсутствует

Внимание! Раздача ведётся путём добавления новых серий

Внимание! Раздача ведётся путём добавления новых серий; при каждом добавлении создаётся новый торрент. Чтобы начать докачку новой серии, пользователям необходимо сделать следующее:
(1) остановить скачивание,
(2) удалить старый торрент у себя из клиента (старые серии удалять не надо),
(3) скачать новый торрент и запустить его у себя в клиенте вместо старого, при этом указать клиенту путь в старую папку куда и должно происходить скачивание новых серий.

Ваш клиент при этом должен произвести хеширование (проверку) старой папки (если не производит сам - помогите ему сделать это), и будет докачивать только те серии которых у вас ещё нет. Старые серии при этом не удаляются, а продолжают раздаваться!

Eсли вы уже удалили старые серии, то предотвратить повторную закачку старых серий можно, отжав галочку в соответствующих местах при запуске нового торрента. По возможности, желательно не удалять старые серии как можно дольше, чтобы релизёр не столько продолжал раздавать старые серии, а смог сконцентрироваться на новых.


MediaInfo
General
Unique ID : 196379350774528555929059578329032919547 (0x93BD4986B3086BB02475A0ABC91589FB)
Complete name : D:\NewStation\Tarantula.S01.WEB-DL.1080p.NewStation\Tarantula.S01E01.WEB-DL.1080p.NewStation.mkv
Format : Matroska
Format version : Version 4 / Version 2
File size : 715 MiB
Duration : 21 min 8 s
Overall bit rate : 4 729 kb/s
Encoded date : UTC 2018-04-06 21:50:32
Writing application : mkvmerge v19.0.0 ('Brave Captain') 64-bit
Writing library : libebml v1.3.5 + libmatroska v1.4.8

Video
ID : 1
Format : AVC
Format/Info : Advanced Video Codec
Format profile : High@L4
Format settings : CABAC / 4 Ref Frames
Format settings, CABAC : Yes
Format settings, RefFrames : 4 frames
Codec ID : V_MPEG4/ISO/AVC
Duration : 21 min 8 s
Bit rate : 4 500 kb/s
Width : 1 920 pixels
Height : 1 080 pixels
Display aspect ratio : 16:9
Frame rate mode : Constant
Frame rate : 29.970 (29970/1000) FPS
Color space : YUV
Chroma subsampling : 4:2:0
Bit depth : 8 bits
Scan type : Progressive
Bits/(Pixel*Frame) : 0.072
Stream size : 657 MiB (92%)
Writing library : x264 core 148 r236 a01e339
Encoding settings : cabac=1 / ref=1 / deblock=1:0:0 / analyse=0x3:0x113 / me=hex / subme=2 / psy=1 / psy_rd=1.00:0.00 / mixed_ref=0 / me_range=16 / chroma_me=1 / trellis=0 / 8x8dct=1 / cqm=0 / deadzone=21,11 / fast_pskip=1 / chroma_qp_offset=0 / threads=34 / lookahead_threads=8 / sliced_threads=0 / nr=0 / decimate=1 / interlaced=0 / bluray_compat=0 / constrained_intra=0 / bframes=2 / b_pyramid=2 / b_adapt=0 / b_bias=0 / direct=1 / weightb=1 / open_gop=0 / weightp=1 / keyint=60 / keyint_min=6 / scenecut=0 / intra_refresh=0 / rc_lookahead=10 / rc=2pass / mbtree=1 / bitrate=4500 / ratetol=1.0 / qcomp=0.60 / qpmin=0 / qpmax=69 / qpstep=4 / cplxblur=20.0 / qblur=0.5 / vbv_maxrate=4500 / vbv_bufsize=4500 / nal_hrd=none / filler=0 / ip_ratio=1.40 / aq=1:1.00
Default : Yes
Forced : No

Audio #1
ID : 2
Format : AC-3
Format/Info : Audio Coding 3
Codec ID : A_AC3
Duration : 21 min 8 s
Bit rate mode : Constant
Bit rate : 256 kb/s
Channel(s) : 2 channels
Channel positions : Front: L R
Sampling rate : 48.0 kHz
Frame rate : 31.250 FPS (1536 SPF)
Bit depth : 16 bits
Compression mode : Lossy
Stream size : 38.7 MiB (5%)
Title : NewStation
Language : Russian
Service kind : Complete Main
Default : Yes
Forced : No

Audio #2
ID : 3
Format : AAC
Format/Info : Advanced Audio Codec
Format profile : LC
Codec ID : A_AAC-2
Duration : 21 min 8 s
Bit rate : 126 kb/s
Channel(s) : 2 channels
Channel positions : Front: L R
Sampling rate : 44.1 kHz
Frame rate : 43.066 FPS (1024 SPF)
Compression mode : Lossy
Stream size : 19.0 MiB (3%)
Title : Original
Default : No
Forced : No

Text
ID : 4
Format : UTF-8
Codec ID : S_TEXT/UTF8
Codec ID/Info : UTF-8 Plain Text
Duration : 20 min 57 s
Bit rate : 158 b/s
Count of elements : 572
Stream size : 24.3 KiB (0%)
Language : English
Default : No
Forced : No

Menu
00:00:00.000 : en:Chapter 01
00:06:29.957 : en:Chapter 02
00:14:01.859 : en:Chapter 03
00:19:34.410 : en:Chapter 04




Информация о торренте:
Размер содержимого: 4.9 GB
Скачан: 217 раз
Статус: Обновляемая раздача
Зарегистрирован на трекере: 2019-01-27 20:54
Скачать торрент


Поддержи раздачу — поставь лайк:
E-mail:
* Это обновляемая раздача и мы можем вас информировать об обновлении торрента в ней.

Писать комментарии на нашем торрент-трекере могут только зарегистрированные пользователи.
Зарегистрируйтесь или авторизируйтесь на сайте.