»
»

Скачать фильм Лёд (Олег Трофим) / [2018, мелодрама, драма, спорт, BDRip-AVC] | GER Transfer | - торрент

Торрент можно скачать, нажав синюю кнопку ниже. Фильм доступен на нашем торрент-трекере бесплатно, без регистрации и смс.

Статистика раздачи
1366 [ 10.0 KB/s ] ↑ 1.5 GB ↓ 0 [ 0 b/s ]
Автор Сообщение
BLIZNEC W
2018-03-28 09:27
Лёд
Лёд Формат: BDRip-AVC, MKV, x264, AC3
Режиссер: Олег Трофим
Жанр: мелодрама, драма, спорт
Продолжительность: 01:30:02
Год выпуска: 2018

В ролях: Аглая Тарасова, Мария Аронова, Александр Петров (III), Милош Бикович, Ксения Раппопорт, Ян Цапник, Ксения Лаврова-Глинка, Павел Майков, Ирина Старшенбаум, Максим Белбородов

Описание: С самого детства Надя верила в чудеса. Она представляла себе, как выходит на лёд под овации публики и танцует свой самый красивый танец. И вот, благодаря вере и упорству, Надя становится знаменитой фигуристкой. Но когда ее мечты о громких победах, красивой жизни и прекрасном принце уже, кажется, готовы исполниться, судьба преподносит ей настоящее испытание. И чтобы его пройти, нужно будет снова, как в детстве, поверить в мечту. Ведь, может быть, победа не всегда должна быть громкой, а прекрасный принц не обязательно передвигается на белом коне?.
«Весна близко»
Рейтинг и доп. информация:


Видео: 1024x428 (2,40:1), 24 fps, MPEG-4 AVC, 1871 Кbps avg, 0.178 bit/pixel
Аудио: 48 kHz, AC3 Dolby Digital, 3/2 (L,C,R,l,r) + LFE ch, ~448 kbps Лицензия Blu-ray GER

Доп. инфо: исх. ICE_2018_GER_BLUEBIRD
MediaInfo
Общее
Уникальный идентификатор: 63796833655767595263296872064006322470 (0x2FFED2BF2AB1738C5C16C0145B717926)
Полное имя: G:TorrentsFilesLED.2017.GER.BDRip.x264.mkv
Формат: Matroska
Версия формата: Version 4
Размер файла: 1,46 Гбайт
Продолжительность: 1 ч. 30 м.
Общий поток: 2320 Кбит/сек
Название фильма: Лед (2017)
Дата кодирования: UTC 2020-03-11 13:05:07
Программа кодирования: mkvmerge v41.0.0 ('Smarra') 64-bit
Библиотека кодирования: libebml v1.3.9 + libmatroska v1.5.2
Обложка: Yes
Attachments: cover.jpg

Видео
Идентификатор: 1
Формат: AVC
Формат/Информация: Advanced Video Codec
Профиль формата: High@L4.1
Настройки формата: CABAC / 12 Ref Frames
Параметр CABAC формата: Да
Параметр RefFrames формата: 12 кадров
Идентификатор кодека: V_MPEG4/ISO/AVC
Продолжительность: 1 ч. 30 м.
Битрейт: 1871 Кбит/сек
Ширина: 1024 пикселя
Высота: 428 пикселей
Соотношение сторон: 2,40:1
Режим частоты кадров: Постоянный
Частота кадров: 24,000 кадра/сек
Цветовое пространство: YUV
Субдискретизация насыщенности: 4:2:0
Битовая глубина: 8 бит
Тип развёртки: Прогрессивная
Бит/(Пиксели*Кадры): 0.178
Размер потока: 1,18 Гбайт (81%)
Заголовок: #stillet
Библиотека кодирования: x264 core 152 r2851bm ba24899
Настройки программы: cabac=1 / ref=12 / deblock=1:-3:-3 / analyse=0x3:0x113 / me=umh / subme=11 / psy=1 / psy_rd=1.00:0.15 / mixed_ref=1 / me_range=32 / chroma_me=1 / trellis=2 / 8x8dct=1 / cqm=0 / deadzone=21,11 / fast_pskip=0 / chroma_qp_offset=-3 / threads=8 / lookahead_threads=3 / sliced_threads=0 / nr=0 / decimate=0 / interlaced=0 / bluray_compat=0 / constrained_intra=0 / bframes=12 / b_pyramid=2 / b_adapt=2 / b_bias=0 / direct=3 / weightb=1 / open_gop=0 / weightp=2 / keyint=240 / keyint_min=23 / scenecut=40 / intra_refresh=0 / rc=2pass / mbtree=0 / bitrate=1871 / ratetol=1.0 / qcomp=0.60 / qpmin=0 / qpmax=69 / qpstep=4 / cplxblur=20.0 / qblur=0.5 / ip_ratio=1.40 / pb_ratio=1.30 / aq=1:1.00
Язык: English
Default: Да
Forced: Нет

Аудио
Идентификатор: 2
Формат: AC-3
Формат/Информация: Audio Coding 3
Коммерческое название: Dolby Digital
Идентификатор кодека: A_AC3
Продолжительность: 1 ч. 30 м.
Вид битрейта: Постоянный
Битрейт: 448 Кбит/сек
Каналы: 6 каналов
ChannelLayout: L R C LFE Ls Rs
Частота: 48,0 КГц
Частота кадров: 31,250 кадров/сек (1536 SPF)
Метод сжатия: С потерями
Размер потока: 289 Мбайт (19%)
Заголовок: Blu-ray GER
Язык: Russian
Default: Да
Forced: Да

Меню
00:00:00.000: en:Глава 1
00:08:44.000: en:Глава 2
00:17:08.458: en:Глава 3
00:25:34.458: en:Глава 4
00:34:00.458: en:Глава 5
00:42:13.249: en:Глава 6
00:50:16.082: en:Глава 7
00:58:26.498: en:Глава 8
01:06:36.873: en:Глава 9
01:14:54.748: en:Глава 10
01:23:38.748: en:Глава 11

Информация о торренте:
Размер содержимого: 1.5 GB
Скачан: 292 раза
Статус: Проверен
Зарегистрирован на трекере: 2020-03-11 19:10
Скачать торрент


Поддержи раздачу — поставь лайк:
BLIZNEC W
2020-03-11 19:24
Интересного и приятного просмотра!!!

Мои раздачи
Писать комментарии на нашем торрент-трекере могут только зарегистрированные пользователи.
Зарегистрируйтесь или авторизируйтесь на сайте.