»
»

Скачать фильм Блестящая карьера (1-2 серии из 2) (Олег Фесенко) / [2018, мелодрама, WEB-DL 720p] - торрент

Бесплатные торренты всегда на нашем сайте и в хорошем качестве! Фильм доступен на нашем торрент-трекере бесплатно, без регистрации и смс.

Статистика раздачи
107 [ 0 b/s ] ↑ 1.8 GB ↓ 0 [ 0 b/s ]
Автор Сообщение
BLIZNEC W
2018-03-15 17:01
Блестящая карьера (1-2 серии из 2)
Блестящая карьера Формат: WEB-DL 720p, MKV, H.264, AC3
Режиссер: Олег Фесенко
Жанр: мелодрама
Продолжительность: 2 х 00:47:00
Год выпуска: 2018

В ролях: Яна Крайнова, Константин Стрельников, Михаил Богдасаров, Анна Полупанова, Василий Козлов (II), Макар Кравченко, Анастасия Соловьева, Виктория Бурчиц, Зоя Антонова, Юлианна Михневич, Сергей Масленников (II), Дмитрий Гурбанович, Лариса Карасина, Елена Стеценко

Описание: Наташа Березина – молодой врач, кардиолог, подающая большие надежды, уже отличный хирург, без пяти минут кандидат наук. Но в личной жизни у Наташи все не так гладко. Она расстается с Максом, с которым встречалась два года, но семейная жизнь так и не случилась. В день расставания Наташу ждет еще больший стресс: она узнает, что хирург Анисимов, который перевелся недавно к ним из другой больницы, во время своего ночного дежурства прооперировал ее пациента. К операции этого пациента Наташа долго готовилась, его случай – как раз тема ее кандидатской...

Рейтинг и доп. информация:


Видео: 1280x720 (16:9), 25 fps, AVC MPEG-4 (x264), High@L4 ~ 2569 kbps avg, 0.112 bit/pixel
Аудио: 48 kHz, AC3, 2/0 (L,R) ch, ~192 kbps
MediaInfo
Общее
Уникальный идентификатор : 43022849348084271937538676980753388874 (0x205DE63E1C54F9B5CAD99110F2E0554A)
Полное имя : C:\Блестящая карьера.(2017).WEB-DL (720p).by.Nicodem.Files-x\01.Блестящая карьера.(2017).WEB-DL (720p).by.Nicodem.Files-x.mkv
Формат : Matroska
Версия формата : Version 4
Размер файла : 934 Мбайт
Продолжительность : 47 м. 14 с.
Общий поток : 2763 Кбит/сек
Программа кодирования : Lavf56.36.100
Библиотека кодирования : Lavf56.36.100

Видео
Идентификатор : 1
Формат : AVC
Формат/Информация : Advanced Video Codec
Профиль формата : High@L4
Настройки формата : CABAC / 4 Ref Frames
Параметр CABAC формата : Да
Параметр RefFrames формата : 4 кадра
Идентификатор кодека : V_MPEG4/ISO/AVC
Продолжительность : 47 м. 14 с.
Битрейт : 2569 Кбит/сек
Ширина : 1280 пикселей
Высота : 720 пикселей
Соотношение сторон : 16:9
Режим частоты кадров : Постоянный
Частота кадров : 25,000 кадров/сек
Цветовое пространство : YUV
Субдискретизация насыщенности : 4:2:0
Битовая глубина : 8 бит
Тип развёртки : Прогрессивная
Бит/(Пиксели*Кадры) : 0.112
Размер потока : 850 Мбайт (91%)
Библиотека кодирования : x264 core 142
Настройки программы : cabac=1 / ref=3 / deblock=1:0:0 / analyse=0x3:0x113 / me=hex / subme=7 / psy=1 / psy_rd=1.00:0.00 / mixed_ref=1 / me_range=16 / chroma_me=1 / trellis=1 / 8x8dct=1 / cqm=0 / deadzone=21,11 / fast_pskip=1 / chroma_qp_offset=-2 / threads=48 / lookahead_threads=5 / sliced_threads=0 / nr=0 / decimate=1 / interlaced=0 / bluray_compat=0 / constrained_intra=0 / bframes=6 / b_pyramid=2 / b_adapt=1 / b_bias=0 / direct=1 / weightb=1 / open_gop=0 / weightp=2 / keyint=50 / keyint_min=26 / scenecut=0 / intra_refresh=0 / rc_lookahead=40 / rc=2pass / mbtree=1 / bitrate=2569 / ratetol=1.0 / qcomp=0.60 / qpmin=0 / qpmax=69 / qpstep=4 / cplxblur=20.0 / qblur=0.5 / vbv_maxrate=3854 / vbv_bufsize=10279 / nal_hrd=none / filler=0 / ip_ratio=1.40 / aq=1:1.00
Default : Да
Forced : Нет

Аудио
Идентификатор : 2
Формат : AC-3
Формат/Информация : Audio Coding 3
Коммерческое название : Dolby Digital
Идентификатор кодека : A_AC3
Продолжительность : 47 м. 14 с.
Вид битрейта : Постоянный
Битрейт : 192 Кбит/сек
Каналы : 2 канала
Channel layout : L R
Частота : 48,0 КГц
Частота кадров : 31,250 кадров/сек (1536 SPF)
Битовая глубина : 16 бит
Метод сжатия : С потерями
Задержка видео : -80 мс.
Размер потока : 64,9 Мбайт (7%)
Язык : unknown
ServiceKind/String : Complete Main
Default : Да
Forced : Нет

Информация о торренте:
Размер содержимого: 1.8 GB
Скачан: 357 раз
Статус: Проверен
Зарегистрирован на трекере: 2019-01-25 09:55
Скачать торрент


Поддержи раздачу — поставь лайк:
BLIZNEC W
2018-03-15 16:02
Интересного и приятного просмотра!!!

Мои раздачи
BLIZNEC W
2019-01-25 10:10
Замена на релиз без ЛОГО канала
Писать комментарии на нашем торрент-трекере могут только зарегистрированные пользователи.
Зарегистрируйтесь или авторизируйтесь на сайте.