»
»

Скачать фильм Золотые угри / Zlati uhori / Golden Eels (Карел Кахиня) [1979, драма, HDTVRip 720p] VO - торрент

Скачать через торрент фильм вы можете, нажав на синюю кнопку. Фильм доступен на нашем торрент-трекере бесплатно, без регистрации и смс.

Статистика раздачи
5 [ 0 b/s ] ↑ 4.5 GB ↓ 0 [ 0 b/s ]
Автор Сообщение
makkaronni
2018-02-14 15:19
Золотые угри / Zlati uhori / Golden Eels

Золотые угри / Zlati uhori / Golden Eels

Перевод: Любительский (одноголосый) [Хуан Рохас]
Субтитры: русские [romkah], английские
Формат: HDTVRip, MKV, H.264, AC3
Страна: Чехословакия
Режиссер: Карел Кахиня
Жанр: драма
Продолжительность: 01:23:05
Год выпуска: 1979

В ролях: Мартин Микулаш, Владимир Мензик, Мирослава Гозова, Рудольф Грушински, Радослав Брзобогаты, Элиска Балцерова, Томаш Мурдых, Михал Вейростек, Зденек Мартинек

Описание: Фильм о маленьком мальчике по прозвищу Вертелка, уехавшем с семьей из Праги в деревню перед началом Второй мировой войны. Там мальчишка подружился с местным рыболовом и постигает премудрости рыбной ловли. В наступившие затем с приходом фашистов нелегкие времена его таланты помогают кормить семью. Проходя сквозь различные испытания мальчик проявляет мужество, упорство в достижении целей — и даже идет на конфронтацию с матерью, чтобы доказать свою любовь к отцу и братьям.



Видео: 986x720p (4:3), 25 fps, MPEG-4 AVC High@L4.1 (x264) ~7085 kbps avg, 0.399 bit/pixel
Аудио #1: Русский: 48 kHz, AC3 Dolby Digital, 2/0 (L,R) ch, ~192 kbps avg [Любительский одноголосый]
Аудио #2: Чешский: 48 kHz, AC3 Dolby Digital, 2/0 (L,R) ch, ~448 kbps avg [Оригинал]

MediaInfo
Формат : Matroska
Версия формата : Version 4 / Version 2
Размер файла : 4,48 Гбайт
Продолжительность : 1 ч. 23 м.
Общий поток : 7723 Кбит/сек
Название фильма : Zlati uhori [720p] [1979] VO
Дата кодирования : UTC 2014-01-22 02:33:09
Программа кодирования : mkvmerge v6.7.0 ('Back to the Ground') 32bit built on Jan 8 2014 15:03:17
Библиотека кодирования : libebml v1.3.0 + libmatroska v1.4.1

Видео
Идентификатор : 1
Формат : AVC
Формат/Информация : Advanced Video Codec
Профиль формата : High@L4.1
Параметр CABAC формата : Да
Параметр ReFrames формата : 11 кадров
Идентификатор кодека : V_MPEG4/ISO/AVC
Продолжительность : 1 ч. 23 м.
Битрейт : 7085 Кбит/сек
Ширина : 986 пикселей
Высота : 720 пикселей
Соотношение сторон : 4:3
Режим частоты кадров : Постоянный
Частота кадров : 25,000 кадров/сек
Цветовое пространство : YUV
Субдискретизация насыщенности : 4:2:0
Битовая глубина : 8 бит
Тип развёртки : Прогрессивная
Бит/(Пиксели*Кадры) : 0.399
Размер потока : 4,02 Гбайт (90%)
Заголовок : profile.php?mode=viewprofile&u=22488948
Библиотека кодирования : x264 core 138 r2358 9e941d1
Настройки программы : cabac=1 / ref=11 / deblock=1:-3:-3 / analyse=0x3:0x133 / me=tesa / subme=10 / psy=1 / psy_rd=1.05:0.00 / mixed_ref=1 / me_range=24 / chroma_me=1 / trellis=2 / 8x8dct=1 / cqm=0 / deadzone=21,11 / fast_pskip=0 / chroma_qp_offset=-2 / threads=12 / lookahead_threads=2 / sliced_threads=0 / nr=0 / decimate=0 / interlaced=0 / bluray_compat=0 / constrained_intra=0 / bframes=8 / b_pyramid=2 / b_adapt=2 / b_bias=0 / direct=3 / weightb=1 / open_gop=0 / weightp=2 / keyint=250 / keyint_min=25 / scenecut=40 / intra_refresh=0 / rc_lookahead=60 / rc=2pass / mbtree=0 / bitrate=7085 / ratetol=1.0 / qcomp=0.70 / qpmin=0 / qpmax=69 / qpstep=4 / cplxblur=20.0 / qblur=0.5 / vbv_maxrate=62500 / vbv_bufsize=78125 / nal_hrd=none / ip_ratio=1.30 / pb_ratio=1.20 / aq=1:0.70
Язык : Czech
Default : Да
Forced : Нет

Аудио #1
Идентификатор : 2
Формат : AC-3
Формат/Информация : Audio Coding 3
Расширение режима : CM (complete main)
Параметр Endianness формата : Big
Идентификатор кодека : A_AC3
Продолжительность : 1 ч. 23 м.
Вид битрейта : Постоянный
Битрейт : 192 Кбит/сек
Каналы : 2 канала
Расположение каналов : Front: L R
Частота : 48,0 КГц
Метод сжатия : С потерями
Размер потока : 114 Мбайт (2%)
Заголовок : VO [Хуан Рохас]
Язык : Russian
Default : Да
Forced : Нет

Аудио #2
Идентификатор : 3
Формат : AC-3
Формат/Информация : Audio Coding 3
Расширение режима : CM (complete main)
Параметр Endianness формата : Big
Идентификатор кодека : A_AC3
Продолжительность : 1 ч. 23 м.
Вид битрейта : Постоянный
Битрейт : 448 Кбит/сек
Каналы : 2 канала
Расположение каналов : Front: L R
Частота : 48,0 КГц
Метод сжатия : С потерями
Размер потока : 266 Мбайт (6%)
Язык : Czech
Default : Нет
Forced : Нет

Текст #1
Идентификатор : 4
Формат : UTF-8
Идентификатор кодека : S_TEXT/UTF8
Идентификатор кодека/Информация : UTF-8 Plain Text
Язык : English
Default : Нет
Forced : Нет

Текст #2
Идентификатор : 5
Формат : UTF-8
Идентификатор кодека : S_TEXT/UTF8
Идентификатор кодека/Информация : UTF-8 Plain Text
Заголовок : [romkah]
Язык : Russian
Default : Нет
Forced : Нет

Информация о торренте:
Размер содержимого: 4.5 GB
Скачан: 144 раза
Статус: Временная раздача
Зарегистрирован на трекере: 2018-02-14 14:19
Скачать торрент


Поддержи раздачу — поставь лайк:
Писать комментарии на нашем торрент-трекере могут только зарегистрированные пользователи.
Зарегистрируйтесь или авторизируйтесь на сайте.