»
»

Скачать фильм Тесла рассекреченные архивы (6 серий из 6) / Tesla's Death Ray: A Murder Declassified (Хилари Бурк) [2017, документальный, наука, расследование, история, DVB 1080i] DVO - торрент

Нажмите на синюю кнопку ниже, чтобы скачать фильм бесплатно через торрент. Фильм доступен на нашем торрент-трекере бесплатно, без регистрации и смс.

Статистика раздачи
75 [ 0 b/s ] ↑ 13.8 GB ↓ 0 [ 0 b/s ]
Автор Сообщение
ARI71
2018-02-07 13:24
Тесла рассекреченные архивы (6 серий из 6) / Tesla's Death Ray: A Murder Declassified
Тесла рассекреченные архивы Перевод: Профессиональный (двухголосый), cубтитры: отсутствуют
Формат: DVB 1080i, MPEG-TS, AVC/MPEG4, AC3/AC3
Страна: США, Discovery Communications, LLC.
Режиссер: Хилари Бурк
Жанр: документальный, наука, расследование, история
Продолжительность: 6 x ~00:43:50
Год выпуска: 2017

Описание: Был ли Никола Тесла, которого часто называют Человеком, который изобрел 20-й век, также ответственным за то, что он задумал одно из первых видов оружия массового уничтожения? Технологические прорывы, такие как радио, сотовый телефон и электричество переменного тока, могут найти корни в многочисленных изобретениях Теслы. Но в последнее время рассекреченные документы раскрывают новую информацию об оружии, созданное Теслой под названием «Луч Смерти» (Death Ray), и показывают, что сверхдержавы, в том числе США и Советский Союз, были заинтригованы им. В этом документальном сериале исследуются изобретения Теслы, в которых основное внимание уделяется лучу смерти, и его исследования, которые, возможно, пропали без вести после его смерти в 1943 году. Военный следователь Джек Мерфи, историк Теслы Кэмерон Принс и инженер Арон Кошчо возглавляют команду, которая ищет ответы.



Рейтинг MPAA:

Видео: 1920x1080 (16:9), 25 fps, AVC MPEG-4 (High@L4), ~6226 kbps avg, 0.120 bit/pixel
Аудио #1: Русский 48 kHz, AC3, 6 ch, ~384.00 kbps avg
Аудио #2: Английский 48 kHz, AC3, 6 ch, ~384.00 kbps avg (Оригинал)

Автор рипа и постера: skorpionN
Содержание серий
00. Гнев гения / Rebel Genius
От электрической сети, до асинхронного двигателя, до беспилотных летательных аппаратов, до лазеров почти каждый технологический прорыв в 20-м веке может найти корни в работах Николы Теслы. Кто был этот гений, и как его работа повлияла на нашу современную жизнь?

01. Безумный ученый Лонг-Айленда / Mad Scientist on Long Island
Эксперты объединяют усилия для расследования жизни, смерти и знаменитой работы изобретателя Никола Теслы - создал ли он первое оружие массового уничтожения и могло ли оно сыграть решающую роль в его таинственной смерти? Команда управляет собственным лучом смерти.

02. Поиск потерянной лаборатории / Search for the Lost Lab
Арон и его команда усердно работают над восстановлением «Смертельного луча» Теслы. Тем временем Джек и Камерон отправляются в Колорадо-Спрингс, чтобы найти бывшее место экспериментальной лаборатории Теслы, в надежде найти больше информации об оружии.

03. Подозреваемый в Сербии / A Suspect in Serbia
После успешной проверки Ароном его «Луча смерти», доказывая, что революционное оружие может быть реальным, Джек переключается на потенциальное убийство Никола Теслы. Джек и Кэмерон отправляются за границу в Сербию искать ключи.

04. В перекрестье Гитлера / In Hitler's Crosshairs
Расследование подозрительной смерти и недостающих документов Теслы продолжается. Команда отправляется в Сербию, родину Теслы, и обнаруживает, что они никогда раньше не видели документы, нарисованные самим Теслой. Воссоздание Луча Смерти продвигается вперед.

05. Разгадка супероружия / Superweapon Unleashed
Когда команда расследует подозрительную смерть Никола Теслы, они подозревают руководство ЦРУ и ФБР в хищении недостающих заметок. Будет ли прототип Луча смерти (Death Ray) работать и был ли он мотивом для убийства?

MediaInfo
Код:
Общее
Идентификатор : 1 (0x1)
Полное имя : C:\00_Rebel Genius.ts
Формат : MPEG-TS
Размер файла : 2,26 Гбайт
Продолжительность : 43 м. 51 с.
Режим общего битрейта : Переменный
Общий поток : 7366 Кбит/сек

Видео
Идентификатор : 4113 (0x1011)
Идентификатор меню : 1 (0x1)
Формат : AVC
Формат/Информация : Advanced Video Codec
Профиль формата : High@L4
Настройки формата : CABAC / 4 Ref Frames
Параметр CABAC формата : Да
Параметр RefFrames формата : 4 кадра
Идентификатор кодека : 27
Продолжительность : 43 м. 50 с.
Вид битрейта : Переменный
Битрейт : 6226 Кбит/сек
Максимальный битрейт : 40,0 Мбит/сек
Ширина : 1920 пикселей
Высота : 1080 пикселей
Соотношение сторон : 16:9
Частота кадров : 25,000 кадров/сек
Стандарт вещания : Component
Цветовое пространство : YUV
Субдискретизация насыщенности : 4:2:0
Битовая глубина : 8 бит
Тип развёртки : Чересстрочная
Метод сохранения типа развёртки : Раздельные поля
Порядок развёртки : Верхнее поле первое
Бит/(Пиксели*Кадры) : 0.120
Размер потока : 1,91 Гбайт (85%)
Цветовой диапазон : Limited
Основные цвета : BT.709
Характеристики трансфера : BT.709
Коэффициенты матрицы : BT.709

Аудио #1
Идентификатор : 4352 (0x1100)
Идентификатор меню : 1 (0x1)
Формат : AC-3
Формат/Информация : Audio Coding 3
Идентификатор кодека : 129
Продолжительность : 43 м. 50 с.
Вид битрейта : Постоянный
Битрейт : 384 Кбит/сек
Каналы : 6 каналов
Расположение каналов : Front: L C R, Side: L R, LFE
Частота : 48,0 КГц
Частота кадров : 31,250 кадров/сек (1536 SPF)
Битовая глубина : 16 бит
Метод сжатия : С потерями
Размер потока : 120 Мбайт (5%)
Язык : Russian
ServiceKind/String : Complete Main

Аудио #2
Идентификатор : 4353 (0x1101)
Идентификатор меню : 1 (0x1)
Формат : AC-3
Формат/Информация : Audio Coding 3
Идентификатор кодека : 129
Продолжительность : 43 м. 50 с.
Вид битрейта : Постоянный
Битрейт : 384 Кбит/сек
Каналы : 6 каналов
Расположение каналов : Front: L C R, Side: L R, LFE
Частота : 48,0 КГц
Частота кадров : 31,250 кадров/сек (1536 SPF)
Битовая глубина : 16 бит
Метод сжатия : С потерями
Размер потока : 120 Мбайт (5%)
Язык : English
ServiceKind/String : Complete Main

Информация о торренте:
Размер содержимого: 13.8 GB
Скачан: 453 раза
Статус: Проверен
Зарегистрирован на трекере: 2018-03-13 13:14
Скачать торрент


Поддержи раздачу — поставь лайк:
ARI71
2019-09-01 19:16
Релиз находится на хранении
(Обновлен: 01.09.2019)

Писать комментарии на нашем торрент-трекере могут только зарегистрированные пользователи.
Зарегистрируйтесь или авторизируйтесь на сайте.