»
»

Скачать сериал Список архива Ланъя. Ветер поднялся в Чанлине / Огненная Нирвана 2, 2 сезон 1-38 серии из 50 / Nirvana in Fire 2: The Wind Blows in Chang Lin (Кун Шэн) [2017, исторический, политика, WEB-DLRip 1080р, SUB] - торрент

Нажмите на синюю кнопку, чтобы скачать сериал через торрент бесплатно. Сериал доступен на нашем торрент-трекере бесплатно, без регистрации и смс.

Статистика раздачи
2 [ 0 b/s ] ↑ 27.6 GB ↓ 1 [ 0 b/s ]
Автор Сообщение
Chepick
2018-01-29 02:05
Список Ланъя 2 / Список архива Ланъя. Ветер поднялся в Чанлине / Огненная Нирвана 2 / Nirvana in Fire 2: The Wind Blows in Chang LinСписок архива Ланъя. Ветер поднялся в Чанлине / Огненная Нирвана 2, 2 сезон 1-38 серии из 50 / Nirvana in Fire 2: The Wind Blows in Chang Lin
Перевод: субтитры [Фансаб-дуэт Ларчик]
Субтитры: русский софтсаб
Хардсаб: китайский
Формат: WEB-DLRip 1080р, MP4, AVC, AAC
Страна: Китай
Режиссёр: Кун Шэн, Ли Сюэ
Жанр: исторический, драма, фэнтези, политика
Всего серий: 50
Продолжительность: 38 x ~00:44:00
Год выпуска: 2017-2018
В ролях: Хуан Сяо Мин, Лю Хао Жань, Тун Лия, Чжан Хуэй Вэнь, У Хао Чэнь, Го Цзин Вэй, Сунь Чунь и др.

Описание: В Великой Лян царит спокойствие, однако на границах войны не угасают. Армия Чанлина, защищающая северные пределы, совершила немало ратных подвигов и покрыла славой своё имя. Во время столкновения на севере, чиновники, озабоченные влиянием, которое князь Чанлина имеет на императора, втайне прервали военные поставки. Заместитель командующего армией Чанлина Сяо Пинчжан тяжело ранен в бою. Его младший брат Сяо Пинцзин, обучающийся в архиве Ланъя, покидает гору, чтобы выяснить правду о произошедшем.


Рейтинг:


Видео: 1920x1080 (16:9), 25.000 fps, AVC High@L4.0 ~2518 kbps avg, 0.049 bit/pixel
Аудио: 44,1 kHz, AAC, 2 ch ~192 kbps avg [китайский (оригинал)]

Доп. информация:
  • 14.01.2020 торрент-файл был обновлён: добавлены 13-38 серии.
  • Снято по одноименному веб-роману писателя Хайянь.
  • Китайский хардсаб полностью закрыт русским софтсабом.
  • Данный перевод запрещается использовать в целях озвучивания без согласия на то авторов оного.













Общее
Полное имя : F:\Content\my-tfile.org_torrents\Nirvana_in_Fire_2\Nirvana_in_Fire_2_ep_04.mp4
Формат : MPEG-4
Профиль формата : Base Media
Идентификатор кодека : isom
Размер файла : 855 Мбайт
Продолжительность : 44 м.
Общий поток : 2713 Кбит/сек
Программа кодирования : Lavf57.71.100

Видео
Идентификатор : 1
Формат : AVC / AVC
Формат/Информация : Advanced Video Codec
Профиль формата : High@L4.0 / High@L5.0
Параметр CABAC формата : Да / Да
Параметр ReFrames формата : 3 кадра / 5 кадров
Идентификатор кодека : avc1
Идентификатор кодека/Информация : Advanced Video Coding
Продолжительность : 44 м.
Битрейт : 2518 Кбит/сек
Ширина : 1920 пикселей
Ширина оригинала : 1920 пикселей / 1920 пикселей
Высота : 1080 пикселей
Высота оригинала : 1080 пикселей / 1080 пикселей
Соотношение сторон : 16:9
Режим частоты кадров : Переменный
Частота кадров : 25,000 кадров/сек
Минимальная частота кадров : 1,471 кадр/сек
Максимальная частота кадров : 25,000 кадров/сек
Цветовое пространство : YUV / YUV
Субдискретизация насыщенности : 4:2:0 / 4:2:0
Битовая глубина : 8 бит / 8 бит
Тип развёртки : Прогрессивная / Progressive
Бит/(Пиксели*Кадры) : 0.049
Размер потока : 793 Мбайт (93%)
Основные цвета : BT.709
Характеристики трансфера : BT.709
Коэффициенты матрицы : BT.709

Аудио
Идентификатор : 2
Формат : AAC
Формат/Информация : Advanced Audio Codec
Профиль формата : LC
Идентификатор кодека : 40
Продолжительность : 44 м.
Вид битрейта : Постоянный
Битрейт : 192 Кбит/сек
Каналы : 2 канала
Расположение каналов : Front: L R
Частота : 44,1 КГц
Метод сжатия : С потерями
Размер потока : 59,9 Мбайт (7%)
Все раздачи сериалаВнимание! Раздача ведётся путём добавления новых серий; при каждом добавлении создаётся новый торрент. Чтобы начать докачку новой серии, пользователям необходимо сделать следующее:
(1) остановить скачивание,
(2) удалить старый торрент у себя из клиента (старые серии удалять не надо),
(3) скачать новый торрент и запустить его у себя в клиенте вместо старого, при этом указать клиенту путь в старую папку куда и должно происходить скачивание новых серий.

Ваш клиент при этом должен произвести хеширование (проверку) старой папки (если не производит сам - помогите ему сделать это), и будет докачивать только те серии которых у вас ещё нет. Старые серии при этом не удаляются, а продолжают раздаваться!

Eсли вы уже удалили старые серии, то предотвратить повторную закачку старых серий можно, отжав галочку в соответствующих местах при запуске нового торрента. По возможности, желательно не удалять старые серии как можно дольше, чтобы релизёр не столько продолжал раздавать старые серии, а смог сконцентрироваться на новых.

Информация о торренте:
Размер содержимого: 27.6 GB
Скачан: 202 раза
Статус: Обновляемая раздача
Зарегистрирован на трекере: 2020-01-14 21:01
Скачать торрент


Поддержи раздачу — поставь лайк:
E-mail:
* Это обновляемая раздача и мы можем вас информировать об обновлении торрента в ней.

Chepick
2018-01-29 01:14
Писать комментарии на нашем торрент-трекере могут только зарегистрированные пользователи.
Зарегистрируйтесь или авторизируйтесь на сайте.