»
»

Скачать прикол Дизель шоу. Все выпуски (ICTV) / [2014-2020, Юмор, WEBRip 1080p] - торрент

Нажмите на синюю кнопку, чтобы скачать прикол через торрент бесплатно. Прикол доступен на нашем торрент-трекере бесплатно, без регистрации и смс.

Статистика раздачи
1 [ 0 b/s ] ↑ 97.4 GB ↓ 0 [ 0 b/s ]
Автор Сообщение
kupper2201
2018-01-02 13:59
Дизель шоу. Все выпуски
Дизель шоу. Все выпуски Перевод: Не требуется, cубтитры: отсутствуют
Формат: WEBRip 1080p, MKV, H.264, AC3
Страна: Украина
Режиссер: ICTV
Жанр: Юмор
Продолжительность: ~ 01:00:00
Год выпуска: 2014-2020

Описание: Дизель Студио решили подвезти тебе новогоднего настроения, чтобы ты почувствовал приближение Нового Года, запах мандарин и новой украшенной елочки в доме!

Видео: 1920x1080 (16:9), 25 fps, AVC (x264) High@L4.0, ~1780 kbps avg, 0.034 bit/pixel
Аудио: 48 kHz, AC3, 2 ch, ~192.00 kbps avg

Доп. информация:

Mediainfo
Общее
Уникальный идентификатор : 79211461153302813857632395409167492874 (0x3B97928F303960A89D5E27D35EE8270A)
Полное имя : F:\Дизель шоу (2017).by.Алехаndr.mkv
Формат : Matroska
Версия формата : Version 4 / Version 2
Размер файла : 1,26 Гбайт
Продолжительность : 1 ч. 29 м.
Общий поток : 2014 Кбит/сек
Программа кодирования : Lavf57.71.100
Библиотека кодирования : Lavf57.71.100
ErrorDetectionType : Per level 1

Видео
Идентификатор : 1
Формат : AVC
Формат/Информация : Advanced Video Codec
Профиль формата : High@L4
Настройки формата : CABAC / 3 Ref Frames
Параметр CABAC формата : Да
Параметр RefFrames формата : 3 кадра
Идентификатор кодека : V_MPEG4/ISO/AVC
Продолжительность : 1 ч. 29 м.
Битрейт : 1782 Кбит/сек
Ширина : 1920 пикселей
Высота : 1080 пикселей
Соотношение сторон : 16:9
Режим частоты кадров : Постоянный
Частота кадров : 25,000 кадров/сек
Цветовое пространство : YUV
Субдискретизация насыщенности : 4:2:0
Битовая глубина : 8 бит
Тип развёртки : Прогрессивная
Бит/(Пиксели*Кадры) : 0.034
Размер потока : 1,12 Гбайт (88%)
Default : Да
Forced : Нет
Цветовой диапазон : Limited
Основные цвета : BT.709
Характеристики трансфера : BT.709
Коэффициенты матрицы : BT.709

Аудио
Идентификатор : 2
Формат : AC-3
Формат/Информация : Audio Coding 3
Идентификатор кодека : A_AC3
Продолжительность : 1 ч. 29 м.
Вид битрейта : Постоянный
Битрейт : 192 Кбит/сек
Каналы : 2 канала
Расположение каналов : Front: L R
Частота : 44,1 КГц
Частота кадров : 28,711 кадров/сек (1536 SPF)
Битовая глубина : 16 бит
Метод сжатия : С потерями
Задержка видео : -40 мс.
Размер потока : 123 Мбайт (10%)
Язык : Russian
ServiceKind/String : Complete Main
Default : Да
Forced : Нет


Информация о торренте:
Размер содержимого: 97.4 GB
Скачан: 134 раза
Статус: Проверен
Зарегистрирован на трекере: 2020-03-21 06:38
Скачать торрент


Поддержи раздачу — поставь лайк:
kam-chadal
2018-01-05 10:47
юмор с запахом дерьма
Phaeton82
2018-01-23 00:23
поц ты!
Писать комментарии на нашем торрент-трекере могут только зарегистрированные пользователи.
Зарегистрируйтесь или авторизируйтесь на сайте.