»
»

Скачать сериал Викинги, 5 сезон 1-20 серии из 20 / Vikings [IdeaFilm] (Киаран Доннелли, Стивен Ст. Леджер, Дэвид Уэллингтон) [2017-2019, исторический, драма, приключения, боевик, WEBRip, Р] - торрент

Нажмите на синюю кнопку ниже, чтобы скачать сериал бесплатно через торрент. Сериал доступен на нашем торрент-трекере бесплатно, без регистрации и смс.

Статистика раздачи
10 [ 226.0 KB/s ] ↑ 13.6 GB ↓ 5 [ 762.0 KB/s ]
Автор Сообщение
D4IVER
2017-12-01 00:29
Викинги / Vikings
Викинги, 5 сезон 1-20 серии из 20 / Vikings [IdeaFilm]
Перевод: Профессиональный (многоголосый, закадровый) IdeaFilm
Субтитры: отсутствуют
Формат: WEBRip, AVI, XviD, AC3
Страна: Ирландия, Канада
Режиссер: Киаран Доннелли, Стивен Ст. Леджер, Дэвид Уэллингтон
Жанр: Исторический, драма, приключения, боевик
Всего серий: 20
Продолжительность: 20 х ~ 00:47:00
Год выпуска: 2017-2019

В ролях: Густаф Скарсгард, Кэтрин Уинник, Александр Людвиг, Клайв Стэнден, Джорджия Хёрст, Алекс Хег Андерсен, Дженни Жак, Джордан Патрик Смит, Мо Данфорд, Петер Францен, Алисия Агнесон, Марко Ильсё, Фердия Уолш-Пило, Ида Нилсен, Джонатан Риз Майерс, Даррен Кехилл

Описание: История повествует о приключениях величайшего героя своего времени – Рагнара Лодброка. В сериале показан Рагнар со своим племенем братьев-викингов и его семьёй в процессе становления королём всех племён викингов. Рагнар – бесстрашный воин, и религиозный викинг, который объединяет все племена и распространяет среди них поклонение скандинавским богам. Согласно легенде, он – прямой потомок Одина, бога войны и воителей.



Видео: 720x400 (16:9), 23.976 fps, XviD MPEG-4 ~1765 kbps avg, 0.26 bit/pixel
Аудио #1 Rus: 48 kHz, AC3 Dolby Digital, 3/2 (L,C,R,l,r) + LFE ch, ~384 kbps

Внимание, присутствует реклама!

MediaInfo

Video
ID : 0
Format : MPEG-4 Visual
Format profile : Advanced Simple@L5
Format settings, BVOP : 2
Format settings, QPel : No
Format settings, GMC : No warppoints
Format settings, Matrix : Default (H.263)
Muxing mode : Packed bitstream
Codec ID : XVID
Codec ID/Hint : XviD
Duration : 46 min 27 s
Bit rate : 1 765 kb/s
Width : 720 pixels
Height : 400 pixels
Display aspect ratio : 16:9
Frame rate : 23.976 (24000/1001) FPS
Color space : YUV
Chroma subsampling : 4:2:0
Bit depth : 8 bits
Scan type : Progressive
Compression mode : Lossy
Bits/(Pixel*Frame) : 0.256
Stream size : 587 MiB (82%)
Writing library : XviD 73

Audio
ID : 1
Format : AC-3
Format/Info : Audio Coding 3
Format settings, Endianness : Big
Codec ID : 2000
Duration : 46 min 27 s
Bit rate mode : Constant
Bit rate : 384 kb/s
Channel(s) : 6 channels
Channel positions : Front: L C R, Side: L R, LFE
Sampling rate : 48.0 kHz
Frame rate : 31.250 FPS (1536 SPF)
Bit depth : 16 bits
Compression mode : Lossy
Stream size : 128 MiB (18%)
Alignment : Aligned on interleaves
Interleave, duration : 42 ms (1.00 video frame)
Interleave, preload duratio : 512 ms
Service kind : Complete Main

Информация о торренте:
Размер содержимого: 13.6 GB
Скачан: 11398 раз
Статус: Проверен
Зарегистрирован на трекере: 2019-02-01 17:56
Скачать торрент


Поддержи раздачу — поставь лайк:
Ягеловв
2017-12-09 09:47
спасибо\
irina nabotova
2017-12-30 09:41
В историческом контексте Сигурд змееглазый остался жив и Ивар его не убивал. Все дети Рагнара стали королями каких нибудь стран. Дания Швеция и т.д. А Ролло красавчик это он основал Нормандию во Франции и правил там железной рукой. как и его потомки.
delasker
2018-01-20 15:20
Да уж какой тут исторический контекст. Это же так, фэнтези на тему викингов, и снято соответствующе. А коль так, авторы и лепят пургу на голубом глазу. Гламурные такие викинги вышли, надо сказать, все с отличными зубами. Видимо в 9-10 веках у них уже были хорошие стоматологи. А чо они Ивара сделали ползующим червяком, вообще малопонятно. Видимо погоняло "бескостный" восприняли тупо буквально. И даже сами не поняли свой маразм.
Если в первых сезонах ещё пытались историчность какую-то показать, то в этом всё закончилось. В сражении бегут толпой, про "стену щитов" напрочь забыто. Лапландцы с духовыми трубками, их индеец что ли какой научил этому. Ну чо ещё бумеранги им не дали.
А вообще обидно за такую подачу истории северных народов, ведь это и наши предки тоже. Кстати, кто интересуется, прочитайте книгу Лоу "Дорога китов".
bambey
2018-01-31 09:48
Фильм с озвучкой для любителей казино макбет,каждые 10 минут-играйте в казино макбет.
knordling
2018-12-07 12:46
в любой даже самый удачный европейский сериал пролезет вездесущая политкорректность:
обязательно должны быть лесбиянки и геи (ну, пусть будет французский король и граф Роланд, Лагерта и Астрид),
обязательно должны быть максимально представлены все расы и национальности, поэтому появляется китаянка - и непременно дочь китайского императора - как ее вообще туда занесло в то время?
Ивара Бескостного - а это вполне реальный исторический персонаж - сделали инвалидом, потому, что обязательно должны быть люди с ограниченными возможностями; вообще сложно представить, чтобы в те времена , да еще у викингов, где царил культ грубой физической силы и предводителями становились самые сильные воины, инвалид мог возглавить войско.
В шестом сезоне "викингов"будет сниматься наш многоуважаемый Данила Козловский в роли князя Вещего Олега.
По мне, так это всё показатель того, что сериал опускается с того изначального уровня хорошего исторического фильма до проходного кино на потребу.
Смотреть по-прежнему можно, но впечатления уже не те.
За раздачу, конечно, - спасибо
jogano
2018-12-24 21:10
knordling написал(а):
в любой даже самый удачный европейский сериал пролезет вездесущая политкорректность: ...

Точно, те же пункты и я замечал. В американских фильмах ещё чтобы негры обязательно были, причём не только в ролях антигероев.
Kleopatra772177.
2019-01-05 03:45
zxzxzx82
2019-01-18 14:24
фигня
Grifle
2019-02-12 07:14
а что сейчас так много сериалов,после "Игры престолов" для меня этот второй...
Писать комментарии на нашем торрент-трекере могут только зарегистрированные пользователи.
Зарегистрируйтесь или авторизируйтесь на сайте.