»
»

Скачать сериал Крылья империи / Окрыленные (1-12 серии из 12) (Игорь Копылов) [2017, история, драма, военный, детектив, HDTVRip-AVC] - торрент

Скачать бесплатный торрент сериал. Сериал доступен на нашем торрент-трекере бесплатно, без регистрации и смс.

Статистика раздачи
1 [ 0 b/s ] ↑ 9.6 GB ↓ 0 [ 0 b/s ]
Автор Сообщение
BLIZNEC W
2017-11-16 00:09
Крылья империи / Окрыленные (1-12 серии из 12)
Крылья империи /  Окрыленные Перевод: Не требуется, cубтитры: отсутствуют
Формат: HDTVRip-AVC, MKV, H.264, AC3
Страна: Россия
Режиссер: Игорь Копылов
Жанр: история, драма, военный, детектив
Всего серий: 12
Продолжительность: 12 х ~ 00:50:00
Год выпуска: 2017

В ролях: Ксения Лукьянчикова, Милош Бикович, Григорий Некрасов, Борис Плотников, Наталья Данилова, Любомирас Лауцявичюс, Александр Лыков, Владимир Юматов, Александр Бухаров, Юрий Ицков, Михаил Елисеев, Иван Колесников, Вячеслав Чепурченко, Олег Гаас, Евгений Антропов, Игорь Иванов, Юрий Орлов (II), Илья Шидловский, Евгений Карпов, Даниил Кокин, Янина Лакоба, Михаил Сиворин, Сергей Заморев, Вадим Сквирский, Петар Зекавица, Алексей Митин, Екатерина Проскурина, Игорь Головин, Алиса Лозовская, Юрий Колокольников, Заза Чантурия, Роман Полянский, Эмилия Спивак, Дарья Румянцева, Илона Маркарова, Алиса Горшкова, Анатолий Хропов, Валерий Гришко, Александр Алексеев (IV), Олег Гаянов, Сергей Куницкий, Андрей Смелов, Игорь Ботвин, Евгений Талашманов, Эрнст Романов, Ольга Онищенко, Мария Лопатина, Аркадий Волгин, Федор Смольянинов, Александр Плаксин, Сергей Бызгу, Сергей Легостаев, Самвел Мужикян, Мариэтта Цигаль-Полищук, Анатолий Петров, Виталий Коваленко, Александр Горбатов (II), Мария Шумакова, Татьяна Рябоконь, Николай Козак, Роза Хайруллина, Геннадий Смирнов, Кирилл Ульянов, Евгений Леонов-Гладышев, Андрей Некрасов (II), Семён Сытник, Сергей Дьячков, Евгений Миллер, Игорь Бессчастнов, Артур Харитоненко

Описание: Действие картины охватывает период времени с 1913 до 1921 года, отражая драматические события российской истории, ураганом пронёсшиеся через судьбы людей и страны, оставив после себя для одних руины прошлого, для других - фундамент для новой жизни. История начинается в 1913 году празднованием 300-летия дома Романовых и заканчивается событиями 1921 года, когда была поставлена кровавая точка в окончании гражданской войны, а именно подавлением Кронштадтского мятежа.

Рейтинг и доп. информация:


Видео: 1024x432 (2,40:1), 25 fps, AVC MPEG-4 (x264), High@L4.1 ~ 2000 kbps , 0.181 bit/pixel
Аудио: 48 kHz, АС3, 2/0 (L,R), ~192.00 kbps avg
MediaInfo
Общее
Уникальный идентификатор : 248487635542556892847206746708874463730 (0xBAF0FA51C3E9B3B585C97D83724D89F2)
Полное имя : C:\Krylja imperiil.(2017).HDTVRip.(AVC).\01.Krylja imperii.(2017).HDTVRip.AVC.mkv
Формат : Matroska
Версия формата : Version 2
Размер файла : 830 Мбайт
Продолжительность : 52 м. 53 с.
Общий поток : 2194 Кбит/сек
Дата кодирования : UTC 2017-11-15 18:37:42
Программа кодирования : mkvmerge v7.8.0 ('River Man') 32bit built on Apr 3 2015 12:11:22
Библиотека кодирования : libebml v1.3.1 + libmatroska v1.4.2

Видео
Идентификатор : 1
Формат : AVC
Формат/Информация : Advanced Video Codec
Профиль формата : High@L4.1
Настройки формата : CABAC / 9 Ref Frames
Параметр CABAC формата : Да
Параметр RefFrames формата : 9 кадров
Идентификатор кодека : V_MPEG4/ISO/AVC
Продолжительность : 52 м. 53 с.
Битрейт : 2000 Кбит/сек
Ширина : 1024 пикселя
Высота : 432 пикселя
Соотношение сторон : 2,40:1
Режим частоты кадров : Постоянный
Частота кадров : 25,000 кадров/сек
Цветовое пространство : YUV
Субдискретизация насыщенности : 4:2:0
Битовая глубина : 8 бит
Тип развёртки : Прогрессивная
Бит/(Пиксели*Кадры) : 0.181
Размер потока : 741 Мбайт (89%)
Библиотека кодирования : x264 core 146 r2538 121396c
Настройки программы : cabac=1 / ref=9 / deblock=1:-2:-1 / analyse=0x3:0x133 / me=umh / subme=9 / psy=1 / psy_rd=1.00:0.15 / mixed_ref=1 / me_range=32 / chroma_me=1 / trellis=2 / 8x8dct=1 / cqm=0 / deadzone=21,11 / fast_pskip=0 / chroma_qp_offset=-3 / threads=18 / lookahead_threads=3 / sliced_threads=0 / nr=0 / decimate=1 / interlaced=0 / bluray_compat=0 / constrained_intra=0 / bframes=9 / b_pyramid=2 / b_adapt=2 / b_bias=0 / direct=1 / weightb=1 / open_gop=0 / weightp=2 / keyint=250 / keyint_min=25 / scenecut=40 / intra_refresh=0 / rc=2pass / mbtree=0 / bitrate=2000 / ratetol=1.0 / qcomp=0.60 / qpmin=0 / qpmax=69 / qpstep=4 / cplxblur=20.0 / qblur=0.5 / ip_ratio=1.40 / pb_ratio=1.30 / aq=2:1.00
Default : Да
Forced : Нет
Цветовой диапазон : Limited
Основные цвета : BT.709
Характеристики трансфера : BT.709
Коэффициенты матрицы : BT.709

Аудио
Идентификатор : 2
Формат : AC-3
Формат/Информация : Audio Coding 3
Идентификатор кодека : A_AC3
Продолжительность : 52 м. 53 с.
Вид битрейта : Постоянный
Битрейт : 192 Кбит/сек
Каналы : 2 канала
Расположение каналов : Front: L R
Частота : 48,0 КГц
Частота кадров : 31,250 кадров/сек (1536 SPF)
Битовая глубина : 16 бит
Метод сжатия : С потерями
Размер потока : 72,6 Мбайт (9%)
ServiceKind/String : Complete Main
Default : Да
Forced : Нет

Информация о торренте:
Размер содержимого: 9.6 GB
Скачан: 685 раз
Статус: Проверен
Зарегистрирован на трекере: 2019-07-19 06:52
Скачать торрент


Поддержи раздачу — поставь лайк:
BLIZNEC W
2017-11-15 23:09
Интересного и приятного просмотра!!!

Мои раздачи
Yall2014
2017-11-21 11:33
А 5-12 серии будут?
viktor-volkov
2018-08-07 17:00
Смотрите здесь https://youtu.be/7uSYK_CP8c0
Писать комментарии на нашем торрент-трекере могут только зарегистрированные пользователи.
Зарегистрируйтесь или авторизируйтесь на сайте.