»
»

Скачать мультфильм Тихоокеанская жара, 1 сезон 1-10 серии из 13 / Pacific Heat [NewStation] (Санто Чилауро, Том Глайзнер, Роб Ситч) [2016, Комедия, экшен, WEBRip 1080p] VO - торрент

Скачать торрент мультфильм можно, нажав на синюю кнопку ниже. Мультфильм доступен на нашем торрент-трекере бесплатно, без регистрации и смс.

Статистика раздачи
6 [ 0 b/s ] ↑ 6.7 GB ↓ 0 [ 0 b/s ]
Автор Сообщение
NewSation
2017-08-10 20:31
Тихоокеанская жара / Pacific Heat
Тихоокеанская жара, 1 сезон 1-10 серии из 13 / Pacific Heat  [NewStation] Перевод: Любительский (одноголосый) NewStation

Субтитры: Английские
Формат: WEBRip 1080p, MKV, H.264, AC3
Страна: Австралия
Режиссер: Санто Чилауро, Том Глайзнер, Роб Ситч
Жанр: Комедия, экшен
Продолжительность: 00:22:40
Год выпуска: 2016
В ролях: Санто Чилауро, Том Глайзнер, Ребекка Мэсси

Описание: Голд-Кост — пляжная столица Австралии, знаменитый рай для сёрферов, также известный благодаря самому высокому уровню преступности в стране. Неординарные и бескомпромиссные сотрудники специального отдела полиции работают под прикрытием.

Доп. информация: В сериале присутствует ненормативная лексика.

Рейтинг на IMDB: 5.4/10

Видео: AVC, 1920x1080, 16:9, 25,000 кадров/сек, ~3830 Кбит/сек

Аудио #1: [RUS] 48 kHz, AC-3, 6ch, ~384 Кбит/сек
Аудио #2: [ENG] 48 kHz, AC-3, 6ch, ~384 Кбит/сек

Подробные технические данные
Общее
Уникальный идентификатор : 216260915648780452344797162452582952063 (0xA2B2565AEC04DCEBAB166FE97B5C6C7F)
Полное имя : D:\NewStation\Pacific.Heat.S01.WEBRip.1080p.NewStation\Pacific.Heat.S01E01.WEBRip.1080p.NewStation.mkv
Формат : Matroska
Версия формата : Version 4 / Version 2
Размер файла : 747 Мбайт
Продолжительность : 22 м. 47 с.
Режим общего битрейта : Переменный
Общий поток : 4583 Кбит/сек
Дата кодирования : UTC 2017-07-25 00:31:46
Программа кодирования : mkvmerge v13.0.0 ('The Juggler') 32bit
Библиотека кодирования : libebml v1.3.4 + libmatroska v1.4.5

Видео
Идентификатор : 1
Формат : AVC
Формат/Информация : Advanced Video Codec
Профиль формата : Main@L4
Параметр CABAC формата : Да
Параметр RefFrames формата : 3 кадра
Идентификатор кодека : V_MPEG4/ISO/AVC
Продолжительность : 22 м. 47 с.
Вид битрейта : Переменный
Битрейт : 3830 Кбит/сек
Максимальный битрейт : 5745 Кбит/сек
Ширина : 1920 пикселей
Высота : 1080 пикселей
Соотношение сторон : 16:9
Режим частоты кадров : Постоянный
Частота кадров : 25,000 кадров/сек
Цветовое пространство : YUV
Субдискретизация насыщенности : 4:2:0
Битовая глубина : 8 бит
Тип развёртки : Прогрессивная
Бит/(Пиксели*Кадры) : 0.074
Размер потока : 622 Мбайт (83%)
Библиотека кодирования : x264 core 118
Настройки программы : cabac=1 / ref=3 / deblock=1:0:0 / analyse=0x1:0x111 / me=umh / subme=10 / psy=1 / psy_rd=1.00:0.00 / mixed_ref=1 / me_range=24 / chroma_me=1 / trellis=2 / 8x8dct=0 / cqm=0 / deadzone=21,11 / fast_pskip=1 / chroma_qp_offset=-2 / threads=6 / sliced_threads=0 / nr=0 / decimate=1 / interlaced=0 / bluray_compat=0 / constrained_intra=0 / bframes=2 / b_pyramid=0 / b_adapt=2 / b_bias=0 / direct=3 / weightb=1 / open_gop=0 / weightp=2 / keyint=50 / keyint_min=26 / scenecut=0 / intra_refresh=0 / rc_lookahead=0 / rc=2pass / mbtree=1 / bitrate=3830 / ratetol=1.0 / qcomp=0.50 / qpmin=6 / qpmax=51 / qpstep=4 / cplxblur=20.0 / qblur=0.5 / vbv_maxrate=5745 / vbv_bufsize=7660 / nal_hrd=vbr / ip_ratio=1.40 / aq=1:1.00
Default : Да
Forced : Нет

Аудио #1
Идентификатор : 2
Формат : AC-3
Формат/Информация : Audio Coding 3
Параметр Endianness формата : Big
Идентификатор кодека : A_AC3
Продолжительность : 22 м. 47 с.
Вид битрейта : Постоянный
Битрейт : 384 Кбит/сек
Каналы : 6 каналов
Расположение каналов : Front: L C R, Side: L R, LFE
Частота : 48,0 КГц
Частота кадров : 31,250 кадров/сек (1536 SPF)
Битовая глубина : 16 бит
Метод сжатия : С потерями
Размер потока : 62,6 Мбайт (8%)
Заголовок : Rus NewSation
ServiceKind/String : Complete Main
Default : Да
Forced : Нет

Аудио #2
Идентификатор : 3
Формат : AC-3
Формат/Информация : Audio Coding 3
Параметр Endianness формата : Big
Идентификатор кодека : A_AC3
Продолжительность : 22 м. 47 с.
Вид битрейта : Постоянный
Битрейт : 384 Кбит/сек
Каналы : 6 каналов
Расположение каналов : Front: L C R, Side: L R, LFE
Частота : 48,0 КГц
Частота кадров : 31,250 кадров/сек (1536 SPF)
Битовая глубина : 16 бит
Метод сжатия : С потерями
Размер потока : 62,6 Мбайт (8%)
Заголовок : Original
Язык : English
ServiceKind/String : Complete Main
Default : Нет
Forced : Нет

Текст #1
Идентификатор : 4
Формат : UTF-8
Идентификатор кодека : S_TEXT/UTF8
Идентификатор кодека/Информация : UTF-8 Plain Text
Продолжительность : 2 с. 520 мс.
Битрейт : 190 бит/сек
ElementCount : 1
Размер потока : 60,0 байт (0%)
Заголовок : Forced
Язык : English
Default : Да
Forced : Да

Текст #2
Идентификатор : 5
Формат : UTF-8
Идентификатор кодека : S_TEXT/UTF8
Идентификатор кодека/Информация : UTF-8 Plain Text
Продолжительность : 22 м. 21 с.
Битрейт : 137 бит/сек
ElementCount : 564
Размер потока : 22,6 Кбайт (0%)
Заголовок : SDH
Язык : English
Default : Нет
Forced : Нет




Внимание! Раздача ведётся путём добавления новых серий
Внимание! Раздача ведётся путём добавления новых серий; при каждом добавлении создаётся новый торрент. Чтобы начать докачку новой серии, пользователям необходимо сделать следующее:
(1) остановить скачивание,
(2) удалить старый торрент у себя из клиента (старые серии удалять не надо),
(3) скачать новый торрент и запустить его у себя в клиенте вместо старого, при этом указать клиенту путь в старую папку куда и должно происходить скачивание новых серий.

Ваш клиент при этом должен произвести хеширование (проверку) старой папки (если не производит сам - помогите ему сделать это), и будет докачивать только те серии которых у вас ещё нет. Старые серии при этом не удаляются, а продолжают раздаваться!

Eсли вы уже удалили старые серии, то предотвратить повторную закачку старых серий можно, отжав галочку в соответствующих местах при запуске нового торрента. По возможности, желательно не удалять старые серии как можно дольше, чтобы релизёр не столько продолжал раздавать старые серии, а смог сконцентрироваться на новых.

Информация о торренте:
Размер содержимого: 6.7 GB
Скачан: 119 раз
Статус: Обновляемая раздача
Зарегистрирован на трекере: 2019-02-14 21:13
Скачать торрент


Поддержи раздачу — поставь лайк:
E-mail:
* Это обновляемая раздача и мы можем вас информировать об обновлении торрента в ней.

NewSation
2017-09-01 21:23
Добавлена 4-я серия. Просьба перекачать торрент.
NewSation
2017-10-13 21:27
Добавлена 5-я серия. Просьба перекачать торрент.
NewSation
2017-11-20 17:29
Добавлена 6-я серия. Просьба перекачать торрент.

NewSation
2017-12-23 19:08
Добавлена 7-я серия. Просьба перекачать торрент.

NewSation
2018-03-17 23:24
Добавлена 8-я серия. Просьба перекачать торрент.

Писать комментарии на нашем торрент-трекере могут только зарегистрированные пользователи.
Зарегистрируйтесь или авторизируйтесь на сайте.