»
»

Скачать фильм Большой (Валерий Тодоровский) / [2016, драма, HDRip] - торрент

Нажмите на синюю кнопку, чтобы скачать фильм через торрент бесплатно. Фильм доступен на нашем торрент-трекере бесплатно, без регистрации и смс.

Статистика раздачи
2 [ 0 b/s ] ↑ 745.6 MB ↓ 0 [ 0 b/s ]
Автор Сообщение
BLIZNEC W
2017-07-16 17:56
Большой
Большой Субтитры: Русские форсированные (отдельно)
Формат: HDRip, AVI, XviD, MP3
Режиссер: Валерий Тодоровский
Жанр: драма
Продолжительность: 02:11:37
Год выпуска: 2016

В ролях: Алиса Фрейндлих, Валентина Теличкина, Александр Домогаров, Николя Ле Риш, Маргарита Симонова, Катя Самуйлина, Анна Исаева, Анастасия Плотникова, Анастасия Прокофьева, Анна Тарасенко, Андрей Сорокин (III), Егор Туров, Анастасия Фёдорова (II), Мария Асабина, Азиза Кондыбаева, Мария Арабова, Яна Сексте, Юлия Свежакова, Николай Качура, Николай Романовский (II), Любава Аристархова, Ирина Савицкова, Сергей Волобуев, Елена Праздникова, Олег Кирсанов, Игорь Захаркин, Павел Белозёров, Ирина Зиброва, Елена Чарквиани, Павел Пархоменко (II)

Описание: Юная и необычайно талантливая танцовщица Юля Ольшанская из маленького шахтерского городка вытягивает «счастливый билет»: её замечает бывший артист балета Потоцкий (Александр Домогаров) и прочит будущее великой балерины, достойной главной сцены страны. Однако для того, чтобы стать бриллиантом, любому, даже самому выдающемуся алмазу, требуется огранка, и путь на легендарные подмостки Большого театра для Юли лежит через стены балетной школы, где опеку над непокорной провинциалкой берет еще более своенравная преподавательница Галина Михайловна Белецкая (Алиса Фрейндлих). Превращение в приму потребует невероятного самоотречения, и Юля на собственном опыте должна будет убедиться, что большой балет – это не только белизна пачек, золото лож и скольжение шелковых лент. Но никакие препятствия не остановят того, у кого есть Большая Мечта.

Рейтинг и доп. информация:


Видео: 608x256 (2.38:1), 24 fps, XviD build 73 ~658 kbps avg, 0.176 bit/pixel
Аудио: 48 kHz, MPEG Layer 3, 2 ch, ~128.00 kbps avg | GER Transfer | Лицензия
MediaInfo
Общее
Полное имя : C:\Users\Валерий\Desktop\Новая папка\Boljshoy.2016.745MB.MegaPeer\Boljshoy.2016.745MB.MegaPeer.avi
Формат : AVI
Формат/Информация : Audio Video Interleave
Размер файла : 746 Мбайт
Продолжительность : 2 ч. 11 м.
Общий поток : 792 Кбит/сек

Видео
Идентификатор : 0
Формат : MPEG-4 Visual
Профиль формата : Advanced Simple@L5
Настройки формата : BVOP1 / Custom Matrix
Параметр BVOP формата : 1
Параметр QPel формата : Нет
Параметр GMC формата : Без точки перехода
Параметр матрицы формата : Выборочная
Идентификатор кодека : XVID
Идентификатор кодека/Подсказка : XviD
Продолжительность : 2 ч. 11 м.
Битрейт : 658 Кбит/сек
Ширина : 608 пикселей
Высота : 256 пикселей
Соотношение сторон : 2,40:1
Частота кадров : 24,000 кадра/сек
Цветовое пространство : YUV
Субдискретизация насыщенности : 4:2:0
Битовая глубина : 8 бит
Тип развёртки : Прогрессивная
Метод сжатия : С потерями
Бит/(Пиксели*Кадры) : 0.176
Размер потока : 620 Мбайт (83%)
Библиотека кодирования : XviD 73

Аудио
Идентификатор : 1
Формат : MPEG Audio
Версия формата : Version 1
Профиль формата : Layer 3
Идентификатор кодека : 55
Идентификатор кодека/Подсказка : MP3
Продолжительность : 2 ч. 11 м.
Вид битрейта : Постоянный
Битрейт : 128 Кбит/сек
Каналы : 2 канала
Частота : 48,0 КГц
Частота кадров : 41,667 кадра/сек (1152 SPF)
Метод сжатия : С потерями
Размер потока : 120 Мбайт (16%)
Выравнивание : Соединение по промежуткам
Продолжительность промежутка : 167 мс. (4,00 видеокадра)
Время предзагрузки промежутка : 216 мс.
Библиотека кодирования : LAME3.99r
Настройки программы : -m s -V 4 -q 2 -lowpass 17 -b 128

Информация о торренте:
Размер содержимого: 745.6 MB
Скачан: 177 раз
Статус: Проверен
Зарегистрирован на трекере: 2019-01-23 09:49
Скачать торрент


Поддержи раздачу — поставь лайк:
BLIZNEC W
2017-07-16 17:00
Интересного и приятного просмотра!!!

Мои раздачи
lepidlo
2017-07-16 19:16
Как фильм?
chaika8888
2017-07-16 21:58
Спасибо большое! Прекрасный фильм!
Zeha7864
2017-07-17 16:16
Надо бы посмотреть. Тодоровский умеет делать хорошие фильмы. За релиз - спасибо!
JULY LEO
2017-07-18 11:02
Zeha7864 написал(а):
Надо бы посмотреть. Тодоровский умеет делать хорошие фильмы. За релиз - спасибо!

ТОЛЬКО НЕ В ЭТОТ РАЗ.
fc_skillman
2019-02-11 08:34
Не тратьте время! Редкостная муть.. можно смело спать весь фильм.
Писать комментарии на нашем торрент-трекере могут только зарегистрированные пользователи.
Зарегистрируйтесь или авторизируйтесь на сайте.