»
»

Скачать фильм Абстракция: Искусство дизайна (1 сезон, 1-8 серии из 8) / Abstract: The Art of Design (Морган Невилл, Брайан Оакс, Ричард Пресс) [2017, документальный, искусство, HDTV 1080i] DVO - торрент

Торрент можно скачать, нажав синюю кнопку ниже. Фильм доступен на нашем торрент-трекере бесплатно, без регистрации и смс.

Статистика раздачи
1 [ 0 b/s ] ↑ 11.3 GB ↓ 0 [ 0 b/s ]
Автор Сообщение
sanayra
2017-07-03 13:52
Абстракция: Искусство дизайна (1 сезон, 1-8 серии из 8 ) / Abstract: The Art of Design
Абстракция: Искусство дизайна
Перевод: Профессиональный (двухголосый), cубтитры: отсутствуют
Формат: HDTV 1080i, MKV, H.264, AAC
Страна: США
Режиссер: Морган Невилл, Брайан Оакс, Ричард Пресс
Жанр: документальный, искусство
Продолжительность: 8 x ~ 00:50:00
Год выпуска: 2017

В ролях: Эс Дэвлин, Тинкер Хэтфилд, Майкл Джордан, Джей Лено, Джордж Луис, Джон МакИнрой, Брайан Оакс

Описание: Мир, в котором мы живем, создан дизайнерами. Модельеры, дизайнеры одежды определяют, что мы будем носить в ближайшие годы. Графические дизайнеры – то, как будут выглядеть книги, журналы или web-сайты, которые мы будем читать. Дизайнеры автомобилей – то, на чем мы будем ездить. Промышленные дизайнеры – внешний вид вещей, которые нас окружают. Архитекторы – облик наших городов. И т.д. и т.п. Netflix и создатели сериала Abstract: The Art of Design решили показать нам, как работают современные дизайнеры, что вдохновляет их, какими приемами они пользуются, что хотят сказать своими работами. Сериал Abstract – уникальная возможность заглянуть на внутреннюю кухню лучших дизайнерских студий мира и, может быть, вдохновиться на создание чего-то своего.

Рейтинг на:


Видео: 1920x1080 (16:9), 30,000 fps, AVC (х264), High@L4, 4950 Кбит/сек, ~ 0.080 bit/pixel
Аудио: 44.1 kHz, AAC, 2/0 (L,R), ~152.00 kbps avg
(тех. данные серий идентичны)

MediaInfo
General
Уникальный идентификатор : 223215742811576364610841438571457394986 (0xA7EDC9CEF156D23A82E3C2424FCFB92A)
Полное имя : F:\КИНО\Абстракция Искусство дизайна\04.Абстракция_ Искусство дизайна (Серия 4) Бьярке Ингельс, архитектор.mp4.mkv
Формат : Matroska
Версия формата : Version 4 / Version 2
Размер файла : 1,55 Гбайт
Продолжительность : 43 м. 30 с.
Общий поток : 5104 Кбит/сек
Дата кодирования : UTC 2017-06-18 13:00:18
Программа кодирования : mkvmerge v12.0.0 ('Trust / Lust') 64bit
Библиотека кодирования : libebml v1.3.4 + libmatroska v1.4.5

Видео
Идентификатор : 2
Формат : AVC
Формат/Информация : Advanced Video Codec
Профиль формата : High@L4
Параметр CABAC формата : Да
Параметр ReFrames формата : 4 кадра
Идентификатор кодека : V_MPEG4/ISO/AVC
Продолжительность : 43 м. 29 с.
Битрейт : 4950 Кбит/сек
Ширина : 1920 пикселей
Высота : 1080 пикселей
Соотношение сторон : 16:9
Режим частоты кадров : Постоянный
Частота кадров : 30,000 кадров/сек
Цветовое пространство : YUV
Субдискретизация насыщенности : 4:2:0
Битовая глубина : 8 бит
Тип развёртки : Прогрессивная
Бит/(Пиксели*Кадры) : 0.080
Размер потока : 1,50 Гбайт (97%)
Библиотека кодирования : x264 core 142
Настройки программы : cabac=1 / ref=3 / deblock=1:0:0 / analyse=0x3:0x113 / me=hex / subme=7 / psy=1 / psy_rd=1.00:0.00 / mixed_ref=1 / me_range=16 / chroma_me=1 / trellis=1 / 8x8dct=1 / cqm=0 / deadzone=21,11 / fast_pskip=1 / chroma_qp_offset=-2 / threads=6 / lookahead_threads=1 / sliced_threads=0 / nr=0 / decimate=1 / interlaced=0 / bluray_compat=0 / constrained_intra=0 / bframes=3 / b_pyramid=2 / b_adapt=1 / b_bias=0 / direct=1 / weightb=1 / open_gop=0 / weightp=2 / keyint=30 / keyint_min=3 / scenecut=40 / intra_refresh=0 / rc_lookahead=30 / rc=2pass / mbtree=1 / bitrate=4950 / ratetol=1.0 / qcomp=0.60 / qpmin=0 / qpmax=69 / qpstep=4 / cplxblur=20.0 / qblur=0.5 / ip_ratio=1.40 / aq=1:1.00
Default : Да
Forced : Нет

Аудио
Идентификатор : 1
Формат : AAC
Формат/Информация : Advanced Audio Codec
Профиль формата : LC
Идентификатор кодека : A_AAC
Продолжительность : 43 м. 30 с.
Битрейт : 152 Кбит/сек
Каналы : 2 канала
Расположение каналов : Front: L R
Частота : 44,1 КГц
Частота кадров : 43,066 кадра/сек (1024 spf)
Метод сжатия : С потерями
Размер потока : 47,3 Мбайт (3%)
Default : Да
Forced : Нет



Информация о торренте:
Размер содержимого: 11.3 GB
Скачан: 814 раз
Статус: Проверен
Зарегистрирован на трекере: 2017-07-03 12:52
Скачать торрент


Поддержи раздачу — поставь лайк:
Писать комментарии на нашем торрент-трекере могут только зарегистрированные пользователи.
Зарегистрируйтесь или авторизируйтесь на сайте.