»
»

Скачать фильм Александр Блок как символ гибели (Виктор Правдюк) / [2002, документальный, биография, литературоведение, DVB] - торрент

Скачать фильм через торрент бесплатно. Фильм доступен на нашем торрент-трекере бесплатно, без регистрации и смс.

Статистика раздачи
1 [ 0 b/s ] ↑ 1.2 GB ↓ 0 [ 0 b/s ]
Автор Сообщение
ARI71
2017-02-03 16:16
Александр Блок как символ гибели
Александр Блок как символ гибели Перевод: Не требуется, cубтитры: отсутствуют
Формат: DVB, MPEG-PS, MPEG2, MP2
Страна: Россия, "СИГМА-ВИДЕО"
Режиссер: Виктор Правдюк
Жанр: документальный, биография, литературоведение
Продолжительность: 00:58:59
Год выпуска: 2002

Описание:
Главные мотивы и ведущие символы в творчестве и судьбе Александра Блока.

_"2 марта 1917 года. Отречение от престола Государя Николая Александровича. Российская империя прекращает свое существование. Многие российские граждане думали тогда, что они изменили монархию в пользу республике. Со временем стало беспощадно ясно, что изменили они Отечеству. А если 2 Марта погибла Россия? Окончательно, бесповоротно, навсегда. И с тех пор мы ищем ее бледную тень, но находим совсем-совсем другое под прежним великим именем". (из дневника А. А. Блока, 9 июня 1917 года)

Алекса́ндр Алекса́ндрович Блок (28 ноября 1880, Санкт-Петербург, Российская империя — 7 августа 1921, Петроград, РСФСР) — русский поэт, писатель, публицист, драматург, переводчик, литературный критик. Классик русской литературы XX столетия, один из крупнейших представителей русского символизма.


Видео: 704x576@768x576 (4:3), 25 fps, Video MPEG-2 (Main@Main) ~2674 kbps avg, 0.26 bit/pixel
Аудио: 48 kHz, MPEG Layer 2, 2 ch, ~192.00 kbps avg

MediaInfo
Код:
Общее
Полное имя : F:\БИОГРАФИИ\[apreder]Alexander_Blok(2002)DVB.mpg
Формат : MPEG-PS
Размер файла : 1,21 Гбайт
Продолжительность : 58 м. 59 с.
Режим общего битрейта : Переменный
Общий поток : 2925 Кбит/сек

Видео
Идентификатор : 224 (0xE0)
Формат : MPEG Video
Версия формата : Version 2
Профиль формата : Main@Main
Настройки формата : CustomMatrix / BVOP
Параметр BVOP формата : Да
Параметр матрицы формата : Выборочная
Параметр GOP формата : M=3, N=24
Структура изображения : Frame
Продолжительность : 58 м. 59 с.
Вид битрейта : Переменный
Битрейт : 2674 Кбит/сек
Ширина : 704 пикселя
Высота : 576 пикселей
Соотношение сторон : 4:3
Частота кадров : 25,000 кадров/сек
Стандарт вещания : PAL
Цветовое пространство : YUV
Субдискретизация насыщенности : 4:2:0
Битовая глубина : 8 бит
Тип развёртки : Чересстрочная
Порядок развёртки : Верхнее поле первое
Метод сжатия : С потерями
Бит/(Пиксели*Кадры) : 0.264
Временной код первого кадра : 00:00:00:00
Оригинал временного кода : Group of pictures header
GOP, открыто/закрыто : Открыто
GOP, открыто/закрыто на первом кадре : Закрыто
Размер потока : 1,10 Гбайт (91%)

Аудио
Идентификатор : 192 (0xC0)
Формат : MPEG Audio
Версия формата : Version 1
Профиль формата : Layer 2
Продолжительность : 58 м. 59 с.
Вид битрейта : Постоянный
Битрейт : 192 Кбит/сек
Каналы : 2 канала
Частота : 48,0 КГц
Частота кадров : 41,667 кадра/сек (1152 SPF)
Метод сжатия : С потерями
Размер потока : 81,0 Мбайт (7%)

Информация о торренте:
Размер содержимого: 1.2 GB
Скачан: 113 раз
Статус: Проверен
Зарегистрирован на трекере: 2019-09-11 20:45
Скачать торрент


Поддержи раздачу — поставь лайк:
Писать комментарии на нашем торрент-трекере могут только зарегистрированные пользователи.
Зарегистрируйтесь или авторизируйтесь на сайте.