»
»

Скачать фильм Бриллиантовая рука (Леонид Гайдай) / [1968, комедия, криминал, приключения, семейный, BDRip-AVC] - торрент

Скачать через торрент фильм вы можете, нажав на синюю кнопку. Фильм доступен на нашем торрент-трекере бесплатно, без регистрации и смс.

Статистика раздачи
26 [ 0 b/s ] ↑ 2.2 GB ↓ 0 [ 0 b/s ]
Автор Сообщение
BLIZNEC W
2016-08-09 21:19
Бриллиантовая рука
Бриллиантовая рука Формат: BDRip-AVC, MKV, H.264, AC3
Режиссер: Леонид Гайдай
Жанр: комедия, криминал, приключения, семейный
Продолжительность: 01:38:21
Год выпуска: 1968

В ролях: Юрий Никулин, Андрей Миронов, Анатолий Папанов, Нина Гребешкова, Нонна Мордюкова, Владимир Гуляев, Станислав Чекан, Светлана Светличная

Описание: Кинороман из жизни контрабандистов с прологом и эпилогом. В южном городке орудует шайка «валютчиков», возглавляемая Шефом и его помощником Графом. Скромный советский служащий и примерный семьянин Семен Семеныч Горбунков отправляется в зарубежный круиз на теплоходе, на котором также плывет Граф, который должен забрать бриллианты в одном из восточных городов и провезти их в загипсованной руке. Но в силу недоразумения вместо жулика на условленном месте падает ничего не подозревающий Семен Семенович и драгоценный гипс накладывают ему. Вот тут-то все и начинается…

Рейтинг и доп. информация:


Видео: 1280x544 (2.35:1), 23,976 fps, MPEG4 AVC (х264) High@L4.1, ~ 2715 kbps avg, 0.163 bit/pixel
Аудио: 48 kHz, AC3 Dolby Digital, 3/2 (L,C,R,l,r) + LFE ch, ~448.00 kbps avg
MediaInfo
Общее
Уникальный идентификатор : 200707137444237124978366196439086886484 (0x96FEC9E20EA8C84F88F749009C516E54)
Полное имя : Brilliantovaya.ruka.1968.BDRip-AVC.720p.иZVeRG.mkv
Формат : Matroska
Версия формата : Version 2
Размер файла : 2,17 Гбайт
Продолжительность : 1 ч. 38 м.
Общий поток : 3164 Кбит/сек
Название фильма : Бриллиантовая рука - иZVeRG
Дата кодирования : UTC 2011-12-25 00:26:01
Программа кодирования : mkvmerge v5.0.1 ('Es ist Sommer') built on Oct 9 2011 11:55:43
Библиотека кодирования : libebml v1.2.2 + libmatroska v1.3.0

Видео
Идентификатор : 1
Формат : AVC
Формат/Информация : Advanced Video Codec
Профиль формата : High@L4.1
Параметр CABAC формата : Да
Параметр ReFrames формата : 12 кадров
Режим смешивания : Header stripping
Идентификатор кодека : V_MPEG4/ISO/AVC
Продолжительность : 1 ч. 38 м.
Битрейт : 2715 Кбит/сек
Ширина : 1280 пикселей
Высота : 544 пикселя
Соотношение сторон : 2,35:1
Частота кадров : 23,976 кадра/сек
Цветовое пространство : YUV
Субдискретизация насыщенности : 4:2:0
Битовая глубина : 8 бит
Тип развёртки : Прогрессивная
Бит/(Пиксели*Кадры) : 0.163
Размер потока : 1,82 Гбайт (84%)
Библиотека кодирования : x264 core 119 r2106 07efeb4
Настройки программы : cabac=1 / ref=12 / deblock=1:-3:-3 / analyse=0x3:0x113 / me=umh / subme=11 / psy=1 / psy_rd=1.05:0.15 / mixed_ref=1 / me_range=32 / chroma_me=1 / trellis=2 / 8x8dct=1 / cqm=0 / deadzone=21,11 / fast_pskip=0 / chroma_qp_offset=-3 / threads=12 / sliced_threads=0 / nr=0 / decimate=0 / interlaced=0 / bluray_compat=0 / constrained_intra=0 / bframes=8 / b_pyramid=2 / b_adapt=2 / b_bias=0 / direct=3 / weightb=1 / open_gop=0 / weightp=2 / keyint=250 / keyint_min=23 / scenecut=40 / intra_refresh=0 / rc=2pass / mbtree=0 / bitrate=2715 / ratetol=1.0 / qcomp=0.70 / qpmin=0 / qpmax=69 / qpstep=4 / cplxblur=20.0 / qblur=0.5 / ip_ratio=1.40 / pb_ratio=1.30 / aq=2:0.70
Default : Да
Forced : Нет

Аудио
Идентификатор : 2
Формат : AC-3
Формат/Информация : Audio Coding 3
Расширение режима : CM (complete main)
Режим смешивания : Header stripping
Идентификатор кодека : A_AC3
Продолжительность : 1 ч. 38 м.
Вид битрейта : Постоянный
Битрейт : 448 Кбит/сек
Каналы : 6 каналов
Расположение каналов : Front: L C R, Side: L R, LFE
Частота : 48,0 КГц
Битовая глубина : 16 бит
Метод сжатия : С потерями
Размер потока : 315 Мбайт (14%)
Default : Да
Forced : Нет

Информация о торренте:
Размер содержимого: 2.2 GB
Скачан: 262 раза
Статус: Проверен
Зарегистрирован на трекере: 2019-03-12 00:04
Скачать торрент


Поддержи раздачу — поставь лайк:
BLIZNEC W
2017-03-24 14:38
Интересного и приятного просмотра!!!

Мои раздачи
Писать комментарии на нашем торрент-трекере могут только зарегистрированные пользователи.
Зарегистрируйтесь или авторизируйтесь на сайте.