»
»

Скачать фильм Кавказская пленница, или Новые приключения Шурика (Леонид Гайдай) / [1966, мелодрама, комедия, приключения, семейный, музыка, BDRip-AVC] - торрент

Нажмите на синюю кнопку ниже, чтобы скачать фильм бесплатно через торрент. Фильм доступен на нашем торрент-трекере бесплатно, без регистрации и смс.

Статистика раздачи
71 [ 0 b/s ] ↑ 2.2 GB ↓ 0 [ 0 b/s ]
Автор Сообщение
BLIZNEC W
2016-08-06 10:08
Кавказская пленница, или Новые приключения Шурика
Кавказская пленница, или Новые приключения Шурика Формат: BDRip-AVC, MKV, H.264, AC3
Субтитры: Русские, английские
Режиссер: Леонид Гайдай
Жанр: мелодрама, комедия, приключения, семейный, музыка
Продолжительность: 01:19:53
Год выпуска: 1966

В ролях: Наталья Варлей, Александр Демьяненко, Владимир Этуш, Фрунзик Мкртчян, Руслан Ахметов, Юрий Никулин, Георгий Вицин, Евгений Моргунов, Ной Авалиани, Нина Гребешкова, Михаил Глузский, Донара Мкртчян, Пётр Репнин

Описание: Шурик отправляется на Кавказ собирать фольклор. Там он знакомится с очаровательной девушкой Ниной, остановившейся на лето у своего дяди. И вот этот дядя втягивает наивного Шурика в почти уголовное дело: Шурику поручается похитить невесту для местного начальника товарища Саахова. Студенту говорят, что это просто шуточный обряд: невеста согласна, родители в курсе. Но оказывается, что все не так, а невеста – Нина. Шурик начинает действовать.

Рейтинг и доп. информация:


Видео: 986x720, (4:3), 23.976 fps, MPEG4 AVC (х264) High@L4.1, ~ 3446 kbps avg, 0.202 bit/pixel
Аудио: 48 kHz, AC3 Dolby Digital, 3/2 (L,C,R,l,r) + LFE ch, ~448.00 kbps avg

Доп. инфо: (Source: Blu-Ray 1080p / Arnis_S)
MediaInfo
Общее
Формат : Matroska
Версия формата : Version 2
Размер файла : 2,17 Гбайт
Продолжительность : 1 ч. 19 м.
Общий поток : 3896 Кбит/сек
Дата кодирования : UTC 2011-10-02 09:40:30
Программа кодирования : mkvmerge v4.9.1 ('Ich will') сборка от Jul 11 2011 23:53:15
Библиотека кодирования : libebml v1.2.1 + libmatroska v1.1.1

Видео
Идентификатор : 1
Формат : AVC
Формат/Информация : Advanced Video Codec
Профиль формата : High@L4.1
Параметр CABAC формата : Да
Параметр ReFrames формата : 8 кадров
Идентификатор кодека : V_MPEG4/ISO/AVC
Продолжительность : 1 ч. 19 м.
Битрейт : 3446 Кбит/сек
Ширина : 986 пикселей
Высота : 720 пикселей
Соотношение сторон : 4:3
Частота кадров : 23,976 кадра/сек
Цветовое пространство : YUV
Субдискретизация насыщенности : 4:2:0
Битовая глубина : 8 бит
Тип развёртки : Прогрессивная
Бит/(Пиксели*Кадры) : 0.202
Размер потока : 1,88 Гбайт (87%)
Заголовок : 986x720 (1.36:1), 23.976 fps, 3446 kbps, 0.202 bit/pixel
Библиотека кодирования : x264 core 116 r2074 2641b9e
Настройки программы : cabac=1 / ref=8 / deblock=1:-3:-2 / analyse=0x3:0x113 / me=umh / subme=10 / psy=1 / psy_rd=1.05:0.05 / mixed_ref=1 / me_range=32 / chroma_me=1 / trellis=2 / 8x8dct=1 / cqm=0 / deadzone=21,11 / fast_pskip=1 / chroma_qp_offset=-4 / threads=6 / sliced_threads=0 / nr=0 / decimate=1 / interlaced=0 / bluray_compat=0 / constrained_intra=0 / bframes=8 / b_pyramid=2 / b_adapt=2 / b_bias=0 / direct=2 / weightb=1 / open_gop=0 / weightp=2 / keyint=250 / keyint_min=23 / scenecut=40 / intra_refresh=0 / rc_lookahead=80 / rc=2pass / mbtree=1 / bitrate=3446 / ratetol=1.0 / qcomp=0.65 / qpmin=0 / qpmax=69 / qpstep=4 / cplxblur=20.0 / qblur=0.5 / ip_ratio=1.40 / aq=2:0.90
Язык : Russian

Аудио
Идентификатор : 2
Формат : AC-3
Формат/Информация : Audio Coding 3
Расширение режима : CM (complete main)
Идентификатор кодека : A_AC3
Продолжительность : 1 ч. 19 м.
Вид битрейта : Постоянный
Битрейт : 448 Кбит/сек
Каналы : 6 каналов
Расположение каналов : Front: L C R, Side: L R, LFE
Частота : 48,0 КГц
Битовая глубина : 16 бит
Метод сжатия : С потерями
Размер потока : 256 Мбайт (12%)
Заголовок : 48 kHz, AC3, 5.1 ch, 448 kbps
Язык : Russian

Информация о торренте:
Размер содержимого: 2.2 GB
Скачан: 206 раз
Статус: Проверен
Зарегистрирован на трекере: 2019-03-12 12:29
Скачать торрент


Поддержи раздачу — поставь лайк:
BLIZNEC W
2019-03-12 12:43
Интересного и приятного просмотра!!!

Мои раздачи
Писать комментарии на нашем торрент-трекере могут только зарегистрированные пользователи.
Зарегистрируйтесь или авторизируйтесь на сайте.