»
»

Скачать фильм Ив Сен Лоран / Yves Saint Laurent - Tout terriblement (Жером Де Миссо, Армель Брюск) [1994, документальный, биография, мода, DVB] DVO - торрент

Скачать через торрент фильм вы можете, нажав на синюю кнопку. Фильм доступен на нашем торрент-трекере бесплатно, без регистрации и смс.

Статистика раздачи
0 [ 0 b/s ] ↑ 968.7 MB ↓ 1 [ 0 b/s ]
Автор Сообщение
ARI71
2016-08-02 00:05
Ив Сен Лоран / Yves Saint Laurent - Tout terriblement
Ив Сен Лоран / Yves Saint Laurent - Tout terriblement Перевод: Профессиональный (двухголосый)
Субтитры: отсутствуют
Формат: DVB, MPEG-TS, MPEG2, MP2
Страна: Франция, La Sept / Arte
Режиссер: Жером Де Миссо, Армель Брюск
Жанр: документальный, биография, мода
Продолжительность: 00:44:47
Год выпуска: 1994

В ролях: Жанна Моро

Описание: Ив Анри Дона Матьё Сен-Лоран, французский модельер, царивший в мире высокой моды 1960-70х годов. После смерти Кристиана Диора, у которого Ив начинал ассистентом, в 1957 году встал во главе его модельного дома (ему был 21 год). Ввёл в женскую моду элементы мужского гардероба — кожаные пиджаки, сапоги по бедро и даже смокинги (1966). Считается основателем стиля унисекс. Был первым, кто пригласил темнокожих манекенщиц для участия в показах мод своих коллекций. Изгнанник Ив Сен-Лоран готовил новую бомбу. И она действительно взбудоражила весь Париж. Свою новую коллекцию он назвал Beat Look: на подиум словно ворвался ветер с улицы — черные кожаные куртки, свитера с высоким горлом, короткие юбки. Аристократия была в шоке — им предложили выглядеть так, словно они какие-нибудь студенточки из Сорбонны.

Ив Анри́ Дона́ Матьё Сен-Лора́н (1 августа 1936, Оран, Алжир — 1 июня 2008, Париж) — французский модельер, работавший в мире высокой моды с конца 1950-х до конца 1980-х годов, создатель модного дома своего имени.


Видео: 720x576@768x576 (4:3), 25 fps, MPEG-2 (Main@Main) ~2681 kbps avg, 0.259 bit/pixel
Аудио: 48 kHz, MPEG Layer 2, 2 ch, ~192.00 kbps avg

Автор релиза: ralf124c41+
MediaInfo
Общее
Идентификатор : 1 (0x1)
Полное имя : D:\[apreder]Yves_Saint_Laurent_Tout_Terriblement(1994)DVB.ts
Формат : MPEG-TS
Размер файла : 969 Мбайт
Продолжительность : 44 м.
Режим общего битрейта : Переменный
Общий поток : 3024 Кбит/сек

Видео
Идентификатор : 224 (0xE0)
Идентификатор меню : 258 (0x102)
Формат : MPEG Video
Версия формата : Version 2
Профиль формата : Main@Main
Параметр BVOP формата : Да
Параметр матрицы формата : Выборочная
Параметр GOP формата : M=3, N=12
Структура изображения : Frame
Идентификатор кодека : 2
Продолжительность : 44 м.
Вид битрейта : Переменный
Битрейт : 2681 Кбит/сек
Максимальный битрейт : 4500 Кбит/сек
Ширина : 720 пикселей
Высота : 576 пикселей
Соотношение сторон : 4:3
Частота кадров : 25,000 кадров/сек
Стандарт вещания : PAL
Цветовое пространство : YUV
Субдискретизация насыщенности : 4:2:0
Битовая глубина : 8 бит
Тип развёртки : Чересстрочная
Порядок развёртки : Верхнее поле первое
Метод сжатия : С потерями
Бит/(Пиксели*Кадры) : 0.259
Временной код первого кадра : 17:19:35:08
Оригинал временного кода : Group of pictures header
GOP, открыто/закрыто : Открыто
Размер потока : 859 Мбайт (89%)

Аудио
Идентификатор : 192 (0xC0)
Идентификатор меню : 258 (0x102)
Формат : MPEG Audio
Версия формата : Version 1
Профиль формата : Layer 2
Идентификатор кодека : 3
Продолжительность : 44 м.
Вид битрейта : Постоянный
Битрейт : 192 Кбит/сек
Каналы : 2 канала
Частота : 48,0 КГц
Метод сжатия : С потерями
Задержка видео : -189 мс.
Размер потока : 61,5 Мбайт (6%)
Язык : German
Язык, дополнительно : Clean effects

Информация о торренте:
Размер содержимого: 968.7 MB
Скачан: 275 раз
Статус: Проверен
Зарегистрирован на трекере: 2016-08-01 23:05
Скачать торрент


Поддержи раздачу — поставь лайк:
ARI71
2019-09-28 11:05
(Обновление раздачи - 28.09.2019)
Писать комментарии на нашем торрент-трекере могут только зарегистрированные пользователи.
Зарегистрируйтесь или авторизируйтесь на сайте.