»
»

Скачать сериал Парни из Трейлерпарка, 1-12 сезоны 1-105 серий из 105 (+ 3 Bonus) / Trailer Park Boys [Михаил Яроцкий kyberpunk] (М. Клаттенберг, Р. Мерфи и др.) [2001-2018, комедия, криминал, DVDRip-AVC/HDRip-HEVC/WebDL, P1] - торрент

Нажмите на синюю кнопку, чтобы скачать сериал через торрент бесплатно. Сериал доступен на нашем торрент-трекере бесплатно, без регистрации и смс.

Статистика раздачи
3 [ 238.0 KB/s ] ↑ 112.9 GB ↓ 1 [ 0 b/s ]
Автор Сообщение
kyberpunk1
2015-12-31 10:37
Парни из Трейлерпарка / Trailer Park Boys
Парни из Трейлерпарка, 1-12 сезоны 1-105 серий из 105 Перевод: Авторский (одноголосый), cубтитры: отсутствуют
Формат: DVDRip-AVC; HDRip-HEVC, MKV, H.264; H.265, AC3
Страна: Канада
Режиссер: Майкл Клаттенберг, Рон Мерфи, Кори Боулз, Уоррен П. Сонода, Джонатан Торренс, Бобби Фаррелли, Брюс МакКаллок, Джей Барушель, Джон Дансуорт
Жанр: Комедия, криминал
Всего серий: 105 (+ бонусы: к/м фильм "Парень с тележками", рождественский спецвыпуск "Дорогой Санта Клаус, иди-ка ты на ***", спецвыпуск "Пожелай спокойной ночи плохим парням")
Продолжительность: 105х~00:23:00/00:30:00
Год выпуска: 2001-2015

В ролях: Робб Уэллс, Джон Пол Тремблэ, Майк Смит, Кори Боулз, Джерри Ди, Юджин Кларк, Хью Диллон, Николь Хильтц

Описание: Двое мелких уголовников снимают фильм про свою жизнь в трейлерном парке. Сериал имеет бешеную популярность в США и Канаде.

[imdb=http://www.imdb.com/title/tt0290988/]

Релиз-Группа:

Перевод: Михаил "kyberpunk" Яроцкий присутствует ненормативная лексика!

Доп. информация: Перевод доступен благодаря пользователям портала Переулок Переводмана. Работа со звуком - Perevodman.

ХОЧЕШЬ ПРОДОЛЖЕНИЯ? ПОМОГИ ПРОЕКТУ!

Качество
1 сезон
Видео 1-2, 6 серий: 704x476 (4:3); 29,970 fps; MPEG4 AVC (x264) High@L4.1; ~1900 kbps; 0.189 bpp
Видео 3 серия: 700x472 (4:3); 29,970 fps; MPEG4 AVC (x264) High@L4.1; ~1900 kbps; 0.194 bpp
Видео 4-5 серий: 696x476 (4:3); 29,970 fps; MPEG4 AVC (x264) High@L4.1; ~1900 kbps; 0.201 bpp
Аудио: 48 kHz, AC3 Dolby Digital, 2 ch, 224 kbps
MediaInfo
Общее
Уникальный идентификатор : 231383683483215543295959206851909404824 (0xAE12E06018561AF5AF94732082CA4898)
Полное имя : D:\VIDEO\Мои переводы\Trailer.Park.Boys.x264.Perevodman\S01\Trailer.Park.Boys.S01E01.Take.Your.Little.Gun.&.Get.Out.Of.My.Trailer.Park.x264.Kyberpunk.mkv
Формат : Matroska
Версия формата : Version 4 / Version 2
Размер файла : 355 Мбайт
Продолжительность : 23 м.
Общий поток : 2127 Кбит/сек
Название фильма : Релиз Переулка Переводмана
Дата кодирования : UTC 2015-09-10 11:21:31
Программа кодирования : mkvmerge v6.0.0 ('Coming Up For Air') built on Jan 20 2013 09:52:00
Библиотека кодирования : libebml v1.3.0 + libmatroska v1.4.0
Attachements : cover.jpg

Видео
Идентификатор : 1
Формат : AVC
Формат/Информация : Advanced Video Codec
Профиль формата : High@L4.1
Параметр CABAC формата : Да
Параметр ReFrames формата : 8 кадров
Идентификатор кодека : V_MPEG4/ISO/AVC
Продолжительность : 23 м.
Битрейт : 1899 Кбит/сек
Ширина : 704 пикселя
Высота : 476 пикселей
Соотношение сторон : 4:3
Режим частоты кадров : Постоянный
Частота кадров : 29,970 кадров/сек
Цветовое пространство : YUV
Субдискретизация насыщенности : 4:2:0
Битовая глубина : 8 бит
Тип развёртки : Прогрессивная
Бит/(Пиксели*Кадры) : 0.189
Размер потока : 311 Мбайт (87%)
Заголовок : x264
Библиотека кодирования : x264 core 67 r1162M f7bfcfa
Настройки программы : cabac=1 / ref=8 / deblock=1:-3:-3 / analyse=0x3:0x133 / me=umh / subme=9 / psy_rd=1.0:0.0 / mixed_ref=1 / me_range=28 / chroma_me=1 / trellis=2 / 8x8dct=1 / cqm=0 / deadzone=21,11 / chroma_qp_offset=-2 / threads=6 / nr=0 / decimate=0 / mbaff=0 / bframes=6 / b_pyramid=1 / b_adapt=2 / b_bias=0 / direct=3 / wpredb=1 / keyint=250 / keyint_min=25 / scenecut=40 / rc=2pass / bitrate=1899 / ratetol=1.0 / qcomp=0.60 / qpmin=10 / qpmax=51 / qpstep=4 / cplxblur=20.0 / qblur=0.5 / vbv_maxrate=50000 / vbv_bufsize=62500 / ip_ratio=1.40 / pb_ratio=1.30 / aq=1:0.90
Язык : English
Default : Да
Forced : Нет

Аудио
Идентификатор : 2
Формат : AC-3
Формат/Информация : Audio Coding 3
Расширение режима : CM (complete main)
Параметр Endianness формата : Big
Идентификатор кодека : A_AC3
Продолжительность : 23 м.
Вид битрейта : Постоянный
Битрейт : 224 Кбит/сек
Каналы : 2 канала
Расположение каналов : Front: L R
Частота : 48,0 КГц
Битовая глубина : 16 бит
Метод сжатия : С потерями
Размер потока : 37,4 Мбайт (11%)
Заголовок : AVO Kyberpunk
Язык : Russian
Default : Да
Forced : Нет


2 сезон
Видео 1-2 серии: 720x476 (1.375:1); 29,970 fps; MPEG4 AVC (x264) High@L4.1; ~1950 kbps; 0.190 bpp
Видео 3-4, 6-7 серии: 716x476 (4:3); 29,970 fps; MPEG4 AVC (x264) High@L4.1; ~1980 kbps; 0.194 bpp
Видео 5 серия: 716x478 (4:3); 29,970 fps; MPEG4 AVC (x264) High@L4.1; ~1978 kbps; 0.193 bpp
Аудио: 48 kHz, AC3 Dolby Digital, 2 ch, 224 kbps
MediaInfo
Общее
Уникальный идентификатор : 226811623537102328810737180229266485883 (0xAAA2546A87AF038BBA432FC8B246B27B)
Полное имя : C:\Сериалы\прочее\Trailer.Park.Boys.x264.Perevodman\S02\Trailer.Park.Boys.S02E01.What.In.The.Fuck.Happened.To.Our.Trailer.Park.x264.Kyberpunk.mkv
Формат : Matroska
Версия формата : Version 4
Размер файла : 355 Мбайт
Продолжительность : 22 м. 48 с.
Общий поток : 2174 Кбит/сек
Название фильма : Релиз Переулка Переводмана
Дата кодирования : UTC 2016-03-16 11:36:52
Программа кодирования : mkvmerge v6.0.0 ('Coming Up For Air') built on Jan 20 2013 09:52:00
Библиотека кодирования : libebml v1.3.0 + libmatroska v1.4.0
Обложка : Yes
Attachments : cover.jpg

Видео
Идентификатор : 1
Формат : AVC
Формат/Информация : Advanced Video Codec
Профиль формата : High@L4.1
Настройки формата : CABAC / 8 Ref Frames
Параметр CABAC формата : Да
Параметр RefFrames формата : 8 кадров
Идентификатор кодека : V_MPEG4/ISO/AVC
Продолжительность : 22 м. 48 с.
Битрейт : 1948 Кбит/сек
Ширина : 720 пикселей
Высота : 476 пикселей
Соотношение сторон : 1,375
Режим частоты кадров : Постоянный
Частота кадров : 29,970 (30000/1001) кадров/сек
Цветовое пространство : YUV
Субдискретизация насыщенности : 4:2:0
Битовая глубина : 8 бит
Тип развёртки : Прогрессивная
Бит/(Пиксели*Кадры) : 0.190
Размер потока : 311 Мбайт (88%)
Заголовок : s02e01
Библиотека кодирования : x264 core 67 r1153M 7b6ce6a
Настройки программы : cabac=1 / ref=8 / deblock=1:-3:-3 / analyse=0x3:0x133 / me=umh / subme=9 / psy_rd=0.9:0.0 / mixed_ref=1 / me_range=32 / chroma_me=1 / trellis=2 / 8x8dct=1 / cqm=0 / deadzone=21,11 / chroma_qp_offset=-2 / threads=6 / nr=0 / decimate=0 / mbaff=0 / bframes=6 / b_pyramid=1 / b_adapt=2 / b_bias=0 / direct=3 / wpredb=1 / keyint=250 / keyint_min=25 / scenecut=40 / rc=2pass / bitrate=1948 / ratetol=1.0 / qcomp=0.60 / qpmin=10 / qpmax=51 / qpstep=4 / cplxblur=20.0 / qblur=0.5 / vbv_maxrate=50000 / vbv_bufsize=62500 / ip_ratio=1.40 / pb_ratio=1.30 / aq=1:0.90
Язык : English
Default : Да
Forced : Нет

Аудио
Идентификатор : 2
Формат : AC-3
Формат/Информация : Audio Coding 3
Коммерческое название : Dolby Digital
Идентификатор кодека : A_AC3
Продолжительность : 22 м. 48 с.
Вид битрейта : Постоянный
Битрейт : 224 Кбит/сек
Каналы : 2 канала
Channel layout : L R
Частота : 48,0 КГц
Частота кадров : 31,250 кадров/сек (1536 SPF)
Битовая глубина : 16 бит
Метод сжатия : С потерями
Размер потока : 36,6 Мбайт (10%)
Заголовок : AVO Kyberpunk
Язык : Russian
ServiceKind/String : Complete Main
Default : Да
Forced : Нет


3 сезон
Видео: 716x476 (4:3); 29,970 fps; MPEG4 AVC (x264) High@L4.1; ~1956 kbps; 0.190 bpp
Аудио: 48 kHz, AC3 Dolby Digital, 2 ch, 224 kbps
MediaInfo
Общее
Уникальный идентификатор : 235259066238621510615632956009198364730 (0xB0FD3F7F456C40EABC159A2D67B3A83A)
Полное имя : E:\Сериалы\Прочее\Trailer.Park.Boys.x264.Perevodman\S03\Trailer.Park.Boys.S03E01.Kiss.Of.Freedom.x264.Kyberpunk.mkv
Формат : Matroska
Версия формата : Version 4
Размер файла : 355 Мбайт
Продолжительность : 22 м. 43 с.
Общий поток : 2184 Кбит/сек
Название фильма : Релиз Переулка Переводмана
Дата кодирования : UTC 2016-06-30 17:35:04
Программа кодирования : mkvmerge v6.0.0 ('Coming Up For Air') built on Jan 20 2013 09:52:00
Библиотека кодирования : libebml v1.3.0 + libmatroska v1.4.0
Обложка : Yes
Attachments : cover.jpg

Видео
Идентификатор : 1
Формат : AVC
Формат/Информация : Advanced Video Codec
Профиль формата : High@L4.1
Настройки формата : CABAC / 8 Ref Frames
Параметр CABAC формата : Да
Параметр RefFrames формата : 8 кадров
Идентификатор кодека : V_MPEG4/ISO/AVC
Продолжительность : 22 м. 43 с.
Битрейт : 1956 Кбит/сек
Ширина : 716 пикселей
Высота : 476 пикселей
Соотношение сторон : 4:3
Режим частоты кадров : Постоянный
Частота кадров : 29,970 (30000/1001) кадров/сек
Цветовое пространство : YUV
Субдискретизация насыщенности : 4:2:0
Битовая глубина : 8 бит
Тип развёртки : Прогрессивная
Бит/(Пиксели*Кадры) : 0.191
Размер потока : 312 Мбайт (88%)
Заголовок : s03e01
Библиотека кодирования : x264 core 67 r1153M 7b6ce6a
Настройки программы : cabac=1 / ref=8 / deblock=1:-3:-3 / analyse=0x3:0x133 / me=umh / subme=9 / psy_rd=1.0:0.0 / mixed_ref=1 / me_range=32 / chroma_me=1 / trellis=2 / 8x8dct=1 / cqm=0 / deadzone=21,11 / chroma_qp_offset=-2 / threads=6 / nr=0 / decimate=0 / mbaff=0 / bframes=6 / b_pyramid=1 / b_adapt=2 / b_bias=0 / direct=3 / wpredb=1 / keyint=250 / keyint_min=25 / scenecut=40 / rc=2pass / bitrate=1956 / ratetol=1.0 / qcomp=0.60 / qpmin=10 / qpmax=51 / qpstep=4 / cplxblur=20.0 / qblur=0.5 / vbv_maxrate=50000 / vbv_bufsize=62500 / ip_ratio=1.40 / pb_ratio=1.30 / aq=1:0.90
Язык : English
Default : Да
Forced : Нет

Аудио
Идентификатор : 2
Формат : AC-3
Формат/Информация : Audio Coding 3
Коммерческое название : Dolby Digital
Идентификатор кодека : A_AC3
Продолжительность : 22 м. 43 с.
Вид битрейта : Постоянный
Битрейт : 224 Кбит/сек
Каналы : 2 канала
Channel layout : L R
Частота : 48,0 КГц
Частота кадров : 31,250 кадров/сек (1536 SPF)
Битовая глубина : 16 бит
Метод сжатия : С потерями
Размер потока : 36,4 Мбайт (10%)
Заголовок : AVO Kyberpunk
Язык : Russian
ServiceKind/String : Complete Main
Default : Да
Forced : Нет


4 сезон
Видео 1-7 серии: 720x476 (4:3); 29,970 fps; MPEG4 AVC (x264) High@L4.1; ~1947 kbps; 0.190 bpp
Видео 8 серия: 704x476 (4:3); 29,970 fps; MPEG4 AVC (x264) High@L4.1; ~1946 kbps; 0.194 bpp
Аудио: 48 kHz, AC3 Dolby Digital, 2 ch, 224 kbps
MediaInfo
Общее
Уникальный идентификатор : 238858177542528756157224729656816626420 (0xB3B269627D80C66CB2AB495B3DE0EAF4)
Полное имя : E:\Сериалы\Прочее\Trailer.Park.Boys.x264.Perevodman\S04\Trailer.Park.Boys.S04E01.Never.Cry.Shitwolf.x264.Kyberpunk.mkv
Формат : Matroska
Версия формата : Version 4
Размер файла : 355 Мбайт
Продолжительность : 22 м. 49 с.
Общий поток : 2175 Кбит/сек
Название фильма : Релиз Переулка Переводмана
Дата кодирования : UTC 2016-11-15 20:21:05
Программа кодирования : mkvmerge v6.0.0 ('Coming Up For Air') built on Jan 20 2013 09:52:00
Библиотека кодирования : libebml v1.3.0 + libmatroska v1.4.0
Обложка : Yes
Attachments : cover.jpg

Видео
Идентификатор : 1
Формат : AVC
Формат/Информация : Advanced Video Codec
Профиль формата : High@L4.1
Настройки формата : CABAC / 8 Ref Frames
Параметр CABAC формата : Да
Параметр RefFrames формата : 8 кадров
Идентификатор кодека : V_MPEG4/ISO/AVC
Продолжительность : 22 м. 49 с.
Битрейт : 1947 Кбит/сек
Ширина : 720 пикселей
Высота : 476 пикселей
Соотношение сторон : 4:3
Режим частоты кадров : Постоянный
Частота кадров : 29,970 (30000/1001) кадров/сек
Цветовое пространство : YUV
Субдискретизация насыщенности : 4:2:0
Битовая глубина : 8 бит
Тип развёртки : Прогрессивная
Бит/(Пиксели*Кадры) : 0.190
Размер потока : 311 Мбайт (88%)
Заголовок : s04e01
Библиотека кодирования : x264 core 67 r1148M 400740b
Настройки программы : cabac=1 / ref=8 / deblock=1:-3:-3 / analyse=0x3:0x133 / me=umh / subme=9 / psy_rd=1.0:0.0 / mixed_ref=1 / me_range=32 / chroma_me=1 / trellis=2 / 8x8dct=1 / cqm=0 / deadzone=21,11 / chroma_qp_offset=-2 / threads=6 / nr=0 / decimate=0 / mbaff=0 / bframes=6 / b_pyramid=1 / b_adapt=2 / b_bias=0 / direct=3 / wpredb=1 / keyint=250 / keyint_min=25 / scenecut=40 / rc=2pass / bitrate=1947 / ratetol=1.0 / qcomp=0.60 / qpmin=10 / qpmax=51 / qpstep=4 / cplxblur=20.0 / qblur=0.5 / vbv_maxrate=50000 / vbv_bufsize=62500 / ip_ratio=1.40 / pb_ratio=1.30 / aq=1:0.90
Язык : English
Default : Да
Forced : Нет

Аудио
Идентификатор : 2
Формат : AC-3
Формат/Информация : Audio Coding 3
Коммерческое название : Dolby Digital
Идентификатор кодека : A_AC3
Продолжительность : 22 м. 49 с.
Вид битрейта : Постоянный
Битрейт : 224 Кбит/сек
Каналы : 2 канала
Channel layout : L R
Частота : 48,0 КГц
Частота кадров : 31,250 кадров/сек (1536 SPF)
Битовая глубина : 16 бит
Метод сжатия : С потерями
Размер потока : 36,6 Мбайт (10%)
Заголовок : AVO Kyberpunk
Язык : Russian
ServiceKind/String : Complete Main
Default : Да
Forced : Нет


5 сезон
Видео 1, 3, 7, 9, 10 серии: 716x480 (4:3); 29,970 fps; MPEG4 AVC (x264) High@L4.1; ~1692 kbps; 0.164 bpp
Видео 2 серия: 708x480 (4:3); 29,970 fps; MPEG4 AVC (x264) High@L4.1; ~1692 kbps; 0.166 bpp
Видео 4, 5 серии: 704x480 (4:3); 29,970 fps; MPEG4 AVC (x264) High@L4.1; ~1696 kbps; 0.167 bpp
Видео 6 серия: 708x472 (4:3); 29,970 fps; MPEG4 AVC (x264) High@L4.1; ~1697 kbps; 0.169 bpp
Видео 8 серия: 712x480 (4:3); 29,970 fps; MPEG4 AVC (x264) High@L4.1; ~1697 kbps; 0.166 bpp
Аудио: 48 kHz, AC3 Dolby Digital, 2 ch, 224 kbps
MediaInfo
Общее
Уникальный идентификатор : 193466241786257833593083342179287343706 (0x918C3E2A00E0E9F194C1D09E957EA25A)
Полное имя : E:\Сериалы\Прочее\Trailer.Park.Boys.x264.Perevodman\S05\Trailer.Park.Boys.S05E01.Give.Peace.A.Chance.x264.Kyberpunk.mkv
Формат : Matroska
Версия формата : Version 4
Размер файла : 313 Мбайт
Продолжительность : 22 м. 48 с.
Общий поток : 1920 Кбит/сек
Название фильма : Релиз Переулка Переводмана
Дата кодирования : UTC 2017-01-17 21:32:37
Программа кодирования : mkvmerge v6.0.0 ('Coming Up For Air') built on Jan 20 2013 09:52:00
Библиотека кодирования : libebml v1.3.0 + libmatroska v1.4.0
Обложка : Yes
Attachments : cover.jpg

Видео
Идентификатор : 1
Формат : AVC
Формат/Информация : Advanced Video Codec
Профиль формата : High@L4.1
Настройки формата : CABAC / 8 Ref Frames
Параметр CABAC формата : Да
Параметр RefFrames формата : 8 кадров
Идентификатор кодека : V_MPEG4/ISO/AVC
Продолжительность : 22 м. 48 с.
Битрейт : 1692 Кбит/сек
Ширина : 716 пикселей
Высота : 480 пикселей
Соотношение сторон : 4:3
Режим частоты кадров : Постоянный
Частота кадров : 29,970 (30000/1001) кадров/сек
Цветовое пространство : YUV
Субдискретизация насыщенности : 4:2:0
Битовая глубина : 8 бит
Тип развёртки : Прогрессивная
Бит/(Пиксели*Кадры) : 0.164
Размер потока : 271 Мбайт (86%)
Заголовок : s05e01
Библиотека кодирования : x264 core 67 r1145M d2e1e1c
Настройки программы : cabac=1 / ref=8 / deblock=1:-3:-3 / analyse=0x3:0x133 / me=umh / subme=9 / psy_rd=1.0:0.0 / mixed_ref=1 / me_range=32 / chroma_me=1 / trellis=2 / 8x8dct=1 / cqm=0 / deadzone=21,11 / chroma_qp_offset=-2 / threads=6 / nr=0 / decimate=0 / mbaff=0 / bframes=6 / b_pyramid=1 / b_adapt=2 / b_bias=0 / direct=3 / wpredb=1 / keyint=250 / keyint_min=25 / scenecut=40 / rc=2pass / bitrate=1692 / ratetol=1.0 / qcomp=0.60 / qpmin=10 / qpmax=51 / qpstep=4 / cplxblur=20.0 / qblur=0.5 / vbv_maxrate=50000 / vbv_bufsize=62500 / ip_ratio=1.40 / pb_ratio=1.30 / aq=1:0.90
Язык : English
Default : Да
Forced : Нет

Аудио
Идентификатор : 2
Формат : AC-3
Формат/Информация : Audio Coding 3
Коммерческое название : Dolby Digital
Идентификатор кодека : A_AC3
Продолжительность : 22 м. 48 с.
Вид битрейта : Постоянный
Битрейт : 224 Кбит/сек
Каналы : 2 канала
Channel layout : L R
Частота : 48,0 КГц
Частота кадров : 31,250 кадров/сек (1536 SPF)
Битовая глубина : 16 бит
Метод сжатия : С потерями
Размер потока : 36,6 Мбайт (12%)
Заголовок : AVO Kyberpunk
Язык : Russian
ServiceKind/String : Complete Main
Default : Да
Forced : Нет


6 сезон
Видео 1, 2, 4, 5 серии: 720x476 (4:3); 29,970 fps; MPEG4 AVC (x264) High@L4.1; ~1707 kbps; 0.166 bpp
Видео 3, 6 серии: 716x476 (4:3); 29,970 fps; MPEG4 AVC (x264) High@L4.1; ~1707 kbps; 0.167 bpp
Аудио: 48 kHz, AC3 Dolby Digital, 3/2 (L,C,R,l,r) + LFE ch, 448 kbps
MediaInfo
Общее
Уникальный идентификатор : 220975461531813159354362647097619655367 (0xA63E5369D991365A89399C98AB1A2AC7)
Полное имя : C:\Сериалы\прочее\Trailer.Park.Boys.x264.Perevodman\S06\Trailer.Park.Boys.S06E01.The.Way.Of.The.Road.x264.Kyberpunk.mkv
Формат : Matroska
Версия формата : Version 4
Размер файла : 350 Мбайт
Продолжительность : 22 м. 39 с.
Общий поток : 2159 Кбит/сек
Название фильма : Релиз Переулка Переводмана
Дата кодирования : UTC 2017-04-05 19:18:24
Программа кодирования : mkvmerge v6.0.0 ('Coming Up For Air') built on Jan 20 2013 09:52:00
Библиотека кодирования : libebml v1.3.0 + libmatroska v1.4.0
Обложка : Yes
Attachments : cover.jpg

Видео
Идентификатор : 1
Формат : AVC
Формат/Информация : Advanced Video Codec
Профиль формата : High@L4.1
Настройки формата : CABAC / 8 Ref Frames
Параметр CABAC формата : Да
Параметр RefFrames формата : 8 кадров
Идентификатор кодека : V_MPEG4/ISO/AVC
Продолжительность : 22 м. 39 с.
Битрейт : 1707 Кбит/сек
Ширина : 720 пикселей
Высота : 476 пикселей
Соотношение сторон : 4:3
Режим частоты кадров : Постоянный
Частота кадров : 29,970 (30000/1001) кадров/сек
Цветовое пространство : YUV
Субдискретизация насыщенности : 4:2:0
Битовая глубина : 8 бит
Тип развёртки : Прогрессивная
Бит/(Пиксели*Кадры) : 0.166
Размер потока : 270 Мбайт (77%)
Заголовок : s06e01
Библиотека кодирования : x264 core 67 r1143M 7554705
Настройки программы : cabac=1 / ref=8 / deblock=1:-3:-3 / analyse=0x3:0x133 / me=umh / subme=9 / psy_rd=1.0:0.0 / mixed_ref=1 / me_range=24 / chroma_me=1 / trellis=2 / 8x8dct=1 / cqm=0 / deadzone=21,11 / chroma_qp_offset=-2 / threads=6 / nr=0 / decimate=0 / mbaff=0 / bframes=6 / b_pyramid=1 / b_adapt=2 / b_bias=0 / direct=3 / wpredb=1 / keyint=250 / keyint_min=25 / scenecut=40 / rc=2pass / bitrate=1707 / ratetol=1.0 / qcomp=0.60 / qpmin=10 / qpmax=51 / qpstep=4 / cplxblur=20.0 / qblur=0.5 / vbv_maxrate=50000 / vbv_bufsize=62500 / ip_ratio=1.40 / pb_ratio=1.30 / aq=1:1.00
Язык : English
Default : Да
Forced : Нет

Аудио
Идентификатор : 2
Формат : AC-3
Формат/Информация : Audio Coding 3
Коммерческое название : Dolby Digital
Идентификатор кодека : A_AC3
Продолжительность : 22 м. 39 с.
Вид битрейта : Постоянный
Битрейт : 448 Кбит/сек
Каналы : 6 каналов
Channel layout : L R C LFE Ls Rs
Частота : 48,0 КГц
Частота кадров : 31,250 кадров/сек (1536 SPF)
Битовая глубина : 16 бит
Метод сжатия : С потерями
Размер потока : 72,6 Мбайт (21%)
Заголовок : AVO Kyberpunk
Язык : Russian
ServiceKind/String : Complete Main
Default : Да
Forced : Нет


7 сезон
Видео 1-10 серии: 1920x1080 (16:9); 29,970 fps; MPEGH HEVC (x265) Main@L4@Main; ~1900-2900 kbps; 0.03-0.05 bpp
Видео 11 серия: 1920x1080 (16:9); 29,970 fps;; MPEG4 AVC (x264) High@L4.1; ~2500 kbps; 0.04 bpp [Спецвыпуск "Пожелай спокойной ночи плохим парням"]
Аудио 1-10 серии: 48 kHz, AC3 Dolby Digital, 2/0 (L,R) ch, 224 kbps
Аудио 11 серия: 48 kHz, AC3 Dolby Digital, 3/2 (L,C,R,l,r) + LFE ch, 448 kbps
MediaInfo
Общее
Уникальный идентификатор : 197649951260988265346897167838544042487 (0x94B1FEF77F845689B59159DBBD1A99F7)
Полное имя : C:\Сериалы\прочее\Trailer.Park.Boys.x264.Perevodman\S07\Trailer.Park.Boys.S07E01.I.Fuckin.Miss.Cory.and.Trevor.x265.Kyberpunk.mkv
Формат : Matroska
Версия формата : Version 4
Размер файла : 424 Мбайт
Продолжительность : 22 м. 35 с.
Общий поток : 2621 Кбит/сек
Название фильма : Релиз Переулка Переводмана
Дата кодирования : UTC 2017-05-27 12:51:47
Программа кодирования : mkvmerge v6.0.0 ('Coming Up For Air') built on Jan 20 2013 09:52:00
Библиотека кодирования : libebml v1.3.0 + libmatroska v1.4.0
Обложка : Yes
Attachments : cover.jpg

Видео
Идентификатор : 1
Формат : HEVC
Формат/Информация : High Efficiency Video Coding
Профиль формата : Main@L4@Main
Идентификатор кодека : V_MPEGH/ISO/HEVC
Продолжительность : 22 м. 35 с.
Битрейт : 2345 Кбит/сек
Ширина : 1920 пикселей
Высота : 1080 пикселей
Соотношение сторон : 16:9
Режим частоты кадров : Постоянный
Частота кадров : 29,970 (30000/1001) кадров/сек
Цветовое пространство : YUV
Субдискретизация насыщенности : 4:2:0
Битовая глубина : 8 бит
Бит/(Пиксели*Кадры) : 0.038
Размер потока : 379 Мбайт (89%)
Заголовок : s07e01
Библиотека кодирования : x265 1.9:[Mac OS X][clang 7.0.0][64 bit] 8bit
Настройки программы : wpp / ctu=64 / min-cu-size=8 / max-tu-size=32 / tu-intra-depth=1 / tu-inter-depth=1 / me=1 / subme=2 / merange=57 / no-rect / no-amp / max-merge=2 / temporal-mvp / no-early-skip / rdpenalty=0 / no-tskip / no-tskip-fast / strong-intra-smoothing / no-lossless / no-cu-lossless / no-constrained-intra / no-fast-intra / open-gop / no-temporal-layers / interlace=0 / keyint=300 / min-keyint=30 / scenecut=40 / rc-lookahead=20 / lookahead-slices=6 / bframes=4 / bframe-bias=0 / b-adapt=2 / ref=3 / limit-refs=3 / no-limit-modes / weightp / no-weightb / aq-mode=1 / qg-size=32 / aq-strength=1.00 / cbqpoffs=0 / crqpoffs=0 / rd=3 / psy-rd=2.00 / rdoq-level=0 / psy-rdoq=0.00 / signhide / deblock / sao / no-sao-non-deblock / b-pyramid / cutree / no-intra-refresh / rc=crf / crf=23.0 / qcomp=0.60 / qpmin=0 / qpmax=51 / qpstep=4 / ipratio=1.40 / pbratio=1.30
Default : Да
Forced : Нет
Цветовой диапазон : Limited
Основные цвета : BT.709
Характеристики трансфера : BT.709
Коэффициенты матрицы : BT.709

Аудио
Идентификатор : 2
Формат : AC-3
Формат/Информация : Audio Coding 3
Коммерческое название : Dolby Digital
Идентификатор кодека : A_AC3
Продолжительность : 22 м. 35 с.
Вид битрейта : Постоянный
Битрейт : 224 Кбит/сек
Каналы : 2 канала
Channel layout : L R
Частота : 48,0 КГц
Частота кадров : 31,250 кадров/сек (1536 SPF)
Битовая глубина : 16 бит
Метод сжатия : С потерями
Задержка видео : -67 мс.
Размер потока : 36,2 Мбайт (9%)
Заголовок : AVO Kyberpunk
Язык : Russian
ServiceKind/String : Complete Main
Default : Да
Forced : Нет


8 сезон
Видео: 1920x1080 (16:9); 23,976 fps; MPEG4 AVC (x264) High@L4.1; ~6500-8200 kbps; 0.130-0.160 bpp
Аудио: 48 kHz, AC3 Dolby Digital, 3/2 (L,C,R,l,r) + LFE ch, 384 kbps
MediaInfo
Общее
Уникальный идентификатор : 228861133909183550676400443628408755371 (0xAC2D0D143F82F14FBED0BE952EAF54AB)
Полное имя : C:\Сериалы\прочее\Trailer.Park.Boys.x264.Perevodman\S08\Trailer.Park.Boys.S08E01.Money.Can.Suck.My.Cock.x264.Kyberpunk.mkv
Формат : Matroska
Версия формата : Version 4
Размер файла : 1,64 Гбайт
Продолжительность : 28 м. 30 с.
Общий поток : 8223 Кбит/сек
Название фильма : Релиз Переулка Переводмана
Дата кодирования : UTC 2017-12-03 13:39:45
Программа кодирования : mkvmerge v6.0.0 ('Coming Up For Air') built on Jan 20 2013 09:52:00
Библиотека кодирования : libebml v1.3.0 + libmatroska v1.4.0
Обложка : Yes
Attachments : cover.jpg

Видео
Идентификатор : 1
Формат : AVC
Формат/Информация : Advanced Video Codec
Профиль формата : High@L4.1
Настройки формата : CABAC / 4 Ref Frames
Параметр CABAC формата : Да
Параметр RefFrames формата : 4 кадра
Идентификатор кодека : V_MPEG4/ISO/AVC
Продолжительность : 28 м. 30 с.
Битрейт : 7676 Кбит/сек
Ширина : 1920 пикселей
Высота : 1080 пикселей
Соотношение сторон : 16:9
Режим частоты кадров : Постоянный
Частота кадров : 23,976 (24000/1001) кадра/сек
Цветовое пространство : YUV
Субдискретизация насыщенности : 4:2:0
Битовая глубина : 8 бит
Тип развёртки : Прогрессивная
Бит/(Пиксели*Кадры) : 0.154
Размер потока : 1,53 Гбайт (93%)
Заголовок : s08e01
Библиотека кодирования : x264 core 148 r2744 b97ae06
Настройки программы : cabac=1 / ref=3 / deblock=1:-3:-3 / analyse=0x3:0x133 / me=umh / subme=9 / psy=1 / psy_rd=1.00:0.00 / mixed_ref=1 / me_range=64 / chroma_me=1 / trellis=1 / 8x8dct=1 / cqm=0 / deadzone=21,11 / fast_pskip=0 / chroma_qp_offset=-2 / threads=12 / lookahead_threads=2 / sliced_threads=0 / nr=0 / decimate=0 / interlaced=0 / bluray_compat=0 / constrained_intra=0 / bframes=8 / b_pyramid=2 / b_adapt=2 / b_bias=0 / direct=3 / weightb=1 / open_gop=0 / weightp=2 / keyint=250 / keyint_min=23 / scenecut=40 / intra_refresh=0 / rc=crf / mbtree=0 / crf=20.0 / qcomp=0.60 / qpmin=0 / qpmax=69 / qpstep=4 / ip_ratio=1.30 / pb_ratio=1.20 / aq=3:0.80
Язык : English
Default : Да
Forced : Нет

Аудио
Идентификатор : 2
Формат : AC-3
Формат/Информация : Audio Coding 3
Коммерческое название : Dolby Digital
Идентификатор кодека : A_AC3
Продолжительность : 28 м. 30 с.
Вид битрейта : Постоянный
Битрейт : 384 Кбит/сек
Каналы : 6 каналов
Channel layout : L R C LFE Ls Rs
Частота : 48,0 КГц
Частота кадров : 31,250 кадров/сек (1536 SPF)
Битовая глубина : 16 бит
Метод сжатия : С потерями
Размер потока : 78,3 Мбайт (5%)
Заголовок : AVO Kyberpunk
Язык : Russian
ServiceKind/String : Complete Main
Default : Да
Forced : Нет


9 сезон
Видео: 1920x1080 (16:9); 23,976 fps; MPEG4 AVC (x264) High@L4.1; ~9500 kbps; 0.190 bpp
Аудио: 48 kHz, AC3 Dolby Digital, 3/2 (L,C,R,l,r) + LFE ch, 384 kbps

10-11 сезоны
Видео: 1920x1080 (16:9); 23,976 fps; MPEG4 AVC (x264) High@L4.1; ~10,3-12,2 Mbps; 0.208-0.246 bpp
Аудио: 48 kHz, AC3 Dolby Digital, 3/2 (L,C,R,l,r) + LFE ch, 384 kbps

12 сезон
Видео: 1920x1080 (16:9); 23,976 fps; MPEG4 AVC (x264) Main@L4; ~7500 kbps; 0.151 bpp
Аудио: 48 kHz, AC3 Dolby Digital, 3/2 (L,C,R,l,r) + LFE ch, 384 kbps

The Cart Boy / Парень с тележками
Видео: 704x480 (4:3); 59,940 fps; MPEG4 AVC (x264) High@L4.1; ~2500 kbps; 0.123 bpp
Аудио: 48 kHz, AC3 Dolby Digital, 2 ch, 224 kbps

Dear Santa Claus: Go Fuck Yourself / Дорогой Санта Клаус, иди-ка ты на ***
Видео: 712x476 (16:9); 29,970 fps; MPEG4 AVC (x264) High@L4.1; ~2500 kbps; 0.246 bpp
Аудио: 48 kHz, AC3 Dolby Digital, 2 ch, 224 kbps



Информация о торренте:
Размер содержимого: 112.9 GB
Скачан: 1852 раза
Статус: Обновляемая раздача
Зарегистрирован на трекере: 2018-12-03 13:45
Скачать торрент


Поддержи раздачу — поставь лайк:
E-mail:
* Это обновляемая раздача и мы можем вас информировать об обновлении торрента в ней.

vnau
2017-08-21 02:10
Статус не менять!! / Kleopatra772177


Смешной и позитивный сериал
kyberpunk1
2017-10-15 17:09
Добавлен спецвыпуск "Пожелай спокойной ночи плохим парням", который продолжает историю, имевшей место в 7 сезоне. (находится в папке с 7 сезоном)
alexanoid
2017-11-03 12:46
kyberpunk1 написал(а):
Добавлен финальный 10 эпизод 8 сезона.


Спасибо за вашу работу ! Просто удивительный сериал.

Сколько полнометражных фильмов переведено на данный момент ? Можно плиз ссылки на их скачивание ?

Так же когда ожидать 9й сезон ?
kyberpunk1
2017-11-07 05:06
alexanoid
Пока переведен один фильм, он есть здесь http://tfile.cc/forum/viewtopic.php?t=922364. В скором времени будет и второй, и когда-нибудь третий.
Работа над 9 сезоном начнется через 2 недели, но будет ли он доведен до конца - неизвестно, т.к. участников, спонсирующих сериал, становится все меньше.
alexanoid
2017-11-09 21:59
kyberpunk1 написал(а):
alexanoid
Пока переведен один фильм, он есть здесь http://tfile.cc/forum/viewtopic.php?t=922364. В скором времени будет и второй, и когда-нибудь третий.
Работа над 9 сезоном начнется через 2 недели, но будет ли он доведен до конца - неизвестно, т.к. участников, спонсирующих сериал, становится все меньше.


спасибо !
kyberpunk1
2017-11-14 09:44
alexanoid написал(а):
спасибо !


Да на здоровье. Будет желание помочь проекту, всегда рады новым участникам. :help:
alexanoid
2018-03-19 13:13
не могу скачать 9й сезон, зависла закачка на 90%
alexanoid
2018-03-22 21:33
kyberpunk1 подкиньте плиз угля к раздаче. Уже недели две скачать 9й сезон отсюда не могу (
kyberpunk1
2018-03-23 11:35
alexanoid

На раздаче каждый день нахожусь
alexanoid
2018-03-23 21:36
странно, чет не качает
alexanoid
2018-03-24 22:19
kyberpunk1, есть другие торренты у вас с этим сериалом ?
kyberpunk1
2018-03-26 11:31
alexanoid
На Переулке Переводмана поищите
lord231087
2018-04-13 17:26
встаньте на раздачу плиззз.
kyberpunk1
2018-12-03 13:47
Добавлены все 12 сезонов!

Полнометражки Парней из Трейлерпарка можно скачать здесь:
1. Парни из Трейлерпарка (2006)
2. Парни из Трейлерпарка: Обратный отсчет до запоя (2009)
3. Парни из Трейлерпарка: Не легализуйте! (2014)

РАЗДАВАТЬ БУДУ ПАРУ НЕДЕЛЬ, ПОТОМУ УДАЛЯЮ СЕРИАЛ У СЕБЯ!
Писать комментарии на нашем торрент-трекере могут только зарегистрированные пользователи.
Зарегистрируйтесь или авторизируйтесь на сайте.