»
»

Скачать сериал Родители (1-48 серии из 48) (Александр Жигалкин) / [2015, комедия, WEB-DLRip] - торрент

Нажмите на синюю кнопку, чтобы скачать сериал через торрент бесплатно. Сериал доступен на нашем торрент-трекере бесплатно, без регистрации и смс.

Статистика раздачи
238 [ 0 b/s ] ↑ 14.1 GB ↓ 0 [ 0 b/s ]
Автор Сообщение
Astarot999
2015-06-28 15:38
Родители (1-48 серии из 48 )
Родители Перевод: Не требуется, cубтитры: отсутствуют
Формат: WEB-DLRip, AVI, XviD, AC3
Страна: Россия
Режиссер: Александр Жигалкин
Жанр: комедия
Всего серий: 48
Продолжительность: 48 х ~ 00:22:00
Год выпуска: 2015

В ролях: Мария Порошина, Александр Самойленко, Александр Самойленко мл., Никита Митасов, Алексей Юрченко, Валерия Механникова, Анастасия Акатова

Описание:
Главные герои - родители - мама Маша, и папа Саша будут искать подход к старшему сыну - шестнадцатилетнему подростку Тимофею, который вроде бы еще ребенок, но уже так не считает.Понаблюдаем, как им удастся обуздать среднего - активного двенадцатилетнего футболиста Илью, если им это, конечно, удастся. А также вместе посмеемся над тем, как они справляются с шалостями и каверзными вопросами самого младшего члена семьи - любопытного второклашки Макса. Но от нашего внимания не уйдут и проблемы в отношениях между самими родителями, и, безусловно, между детьми.Наблюдая за нашими героями, кто-то вспомнит, как четверть века тому назад впервые отругал сына, кто-то ностальгически улыбнется, узнав себя в матери, которая не может заставить ребенка помыть посуду, кто-то вспомнит, как пару лет назад первый раз поцеловался, ну а кто-то еще раз посмеется над своей вчерашней «двойкой» по природоведению.

Рейтинг и доп. инфа:


Видео: 720x400 (1.80:1), 25 fps, XviD MPEG-4 ~1702 kbps avg, 0.236 bit/pixel
Аудио: 48 kHz, АС3, 2 ch, Front: L R ~192.00 kbps avg

MI
Общее
Полное имя : C:\Users\Admin\Downloads\Roditely.2015..WEB-DLRip.Files-x\01.Roditely.2015..WEB-DLRip.Files-x.avi
Формат : AVI
Формат/Информация : Audio Video Interleave
Размер файла : 301 Мбайт
Продолжительность : 22 м.
Общий поток : 1904 Кбит/сек
Программа кодирования : VirtualDubMod 1.5.10.3 | www.virtualdub-fr.org || (build 2550/release)
Библиотека кодирования : VirtualDubMod build 2550/release

Видео
Идентификатор : 0
Формат : MPEG-4 Visual
Профиль формата : Advanced Simple@L5
Параметр BVOP формата : 1
Параметр QPel формата : Нет
Параметр GMC формата : Без точки перехода
Параметр матрицы формата : Выборочная
Идентификатор кодека : XVID
Идентификатор кодека/Подсказка : XviD
Продолжительность : 22 м.
Битрейт : 1702 Кбит/сек
Ширина : 720 пикселей
Высота : 400 пикселей
Соотношение сторон : 16:9
Частота кадров : 25,000 кадров/сек
Цветовое пространство : YUV
Субдискретизация насыщенности : 4:2:0
Битовая глубина : 8 бит
Тип развёртки : Прогрессивная
Метод сжатия : С потерями
Бит/(Пиксели*Кадры) : 0.236
Размер потока : 269 Мбайт (89%)
Библиотека кодирования : XviD 73

Аудио
Идентификатор : 1
Формат : AC-3
Формат/Информация : Audio Coding 3
Расширение режима : CM (complete main)
Параметр Endianness формата : Big
Идентификатор кодека : 2000
Продолжительность : 22 м.
Вид битрейта : Постоянный
Битрейт : 192 Кбит/сек
Каналы : 2 канала
Расположение каналов : Front: L R
Частота : 48,0 КГц
Битовая глубина : 16 бит
Метод сжатия : С потерями
Размер потока : 30,4 Мбайт (10%)
Выравнивание : Разделение по промежуткам
Продолжительность промежутка : 40 мс. (1,00 видеокадр)
Время предзагрузки промежутка : 500 мс.

Информация о торренте:
Размер содержимого: 14.1 GB
Скачан: 427 раз
Статус: Проверен
Зарегистрирован на трекере: 2019-08-19 09:38
Скачать торрент


Поддержи раздачу — поставь лайк:
Astarot999
2015-06-28 14:41
Приятного просмотра!
Ягеловв
2015-06-29 02:04
Спасибо
konia
2015-06-30 19:29
:privet: Astarot999! Спасибо!
konia
2015-08-05 20:51
Еще один Богом забытый сериал! :cry: !
эндрю78
2015-08-17 18:55
дальше будете выкладывать?
Писать комментарии на нашем торрент-трекере могут только зарегистрированные пользователи.
Зарегистрируйтесь или авторизируйтесь на сайте.