»
»

Скачать фильм Эвакуация Земли (1-7 серии из 7) / Evacuate Earth (Тед Шиллингер) [2011-2014, документальный, HDTVRip 1080p] DUB - торрент

Нажмите синюю кнопку, чтобы cкачать бесплатно через торрент фильм. Фильм доступен на нашем торрент-трекере бесплатно, без регистрации и смс.

Статистика раздачи
41 [ 0 b/s ] ↑ 11.3 GB ↓ 0 [ 0 b/s ]
Автор Сообщение
lianji
2015-04-19 10:43
Эвакуация Земли (1-7 серии из 7) / Evacuate Earth
Эвакуация Земли Перевод: Профессиональный (полное дублирование), cубтитры: отсутствуют
Формат: HDTVRip 1080p, MKV, H.264, AC3
Страна: CША
Режиссер: Тед Шиллингер
Жанр: документальный
Продолжительность: 7 x ~ 00:43:00
Год выпуска: 2011-2014
В ролях: Цатхерине Асаро, Давид Бартелл, А.Й. Бруно, Царолын Фин, Дэвид Джачин Келли, Кристл МакМуллан, Фернандо И. Ривера, Дэниэл Уочс

Описание: Астероиды, метеориты, кометы. Мы не знаем, когда может произойти их встреча с нашей планетой. Можем ли мы спастись от космической катастрофы, способной уничтожить все живое? Как и куда, в случае чего, эвакуироваться?



Видео: 1920x1080 (16:9), 25 fps, AVC (х264) High@L4.0, ~5000 kbps avg, 0.096 bit/pixel
Аудио: 48 kHz, AC3 Dolby Digital, 2/0 (L,R) ch, ~224.00 kbps avg
(тех. данные серий идентичны)

MediaInfo
Полное имя : D:\Evacuate.Earth.E01.Zombie.Earth. HDTVRip.mkv
Формат : Matroska
Версия формата : Version 4 / Version 2
Размер файла : 1,60 Гбайт
Продолжительность : 43 м.
Общий поток : 5277 Кбит/сек
Дата кодирования : UTC 2015-04-17 06:04:55
Программа кодирования : Lavf56.1.100
Библиотека кодирования : Lavf56.1.100
COMMENT : http://dmitrytv.umi.ru/

Видео
Идентификатор : 1
Формат : AVC
Формат/Информация : Advanced Video Codec
Профиль формата : High@L4.0
Параметр CABAC формата : Нет
Параметр ReFrames формата : 4 кадра
Идентификатор кодека : V_MPEG4/ISO/AVC
Продолжительность : 43 м.
Битрейт : 5000 Кбит/сек
Ширина : 1920 пикселей
Высота : 1080 пикселей
Соотношение сторон : 16:9
Режим частоты кадров : Постоянный
Частота кадров : 25,000 кадров/сек
Цветовое пространство : YUV
Субдискретизация насыщенности : 4:2:0
Битовая глубина : 8 бит
Тип развёртки : MBAFF
Порядок развёртки : Верхнее поле первое
Бит/(Пиксели*Кадры) : 0.096
Размер потока : 1,50 Гбайт (94%)
Библиотека кодирования : x264 core 124
Настройки программы : cabac=0 / ref=1 / deblock=0:0:0 / analyse=0x3:0x13 / me=dia / subme=1 / psy=1 / psy_rd=1.00:0.00 / mixed_ref=0 / me_range=16 / chroma_me=1 / trellis=0 / 8x8dct=1 / cqm=0 / deadzone=21,11 / fast_pskip=1 / chroma_qp_offset=0 / threads=8 / sliced_threads=0 / nr=0 / decimate=1 / interlaced=tff / bluray_compat=0 / constrained_intra=0 / bframes=3 / b_pyramid=2 / b_adapt=1 / b_bias=0 / direct=1 / weightb=0 / open_gop=0 / weightp=0 / keyint=60 / keyint_min=6 / scenecut=40 / intra_refresh=0 / rc_lookahead=0 / rc=abr / mbtree=0 / bitrate=5000 / ratetol=1.0 / qcomp=0.60 / qpmin=10 / qpmax=51 / qpstep=4 / vbv_maxrate=8000 / vbv_bufsize=6000 / nal_hrd=none / ip_ratio=1.40 / pb_ratio=1.30 / aq=1:1.00
Язык : Russian
Default : Да
Forced : Нет

Аудио
Идентификатор : 2
Формат : AC-3
Формат/Информация : Audio Coding 3
Расширение режима : CM (complete main)
Параметр Endianness формата : Big
Идентификатор кодека : A_AC3
Продолжительность : 43 м.
Вид битрейта : Постоянный
Битрейт : 224 Кбит/сек
Каналы : 2 канала
Расположение каналов : Front: L R
Частота : 48,0 КГц
Битовая глубина : 16 бит
Метод сжатия : С потерями
Задержка видео : 28 мс.
Размер потока : 69,7 Мбайт (4%)
Библиотека кодирования : Lavc56.34.100 ac3_fixed
Язык : Russian
Default : Да
Forced : Нет
Содержание

01. Эвакуация Земли: 2011г.
02. Эвакуация Земли: Нашествие зомби
03. Эвакуация Земли: Микромонстры
04. Эвакуация Земли: Затопленная Земля
05. Эвакуация Земли: Смертоносный ураган
06. Эвакуация Земли: Ад на Земле
07. Эвакуация Земли: Замерзшая Земля

Информация о торренте:
Размер содержимого: 11.3 GB
Скачан: 955 раз
Статус: Мультитрекерная раздача
Зарегистрирован на трекере: 2015-04-19 09:43
Скачать торрент


Поддержи раздачу — поставь лайк:
ЧИКИБАМБ
2015-04-19 11:39
Спасибо видео бы поменьше эх посмотрел бы с удовольствием
Писать комментарии на нашем торрент-трекере могут только зарегистрированные пользователи.
Зарегистрируйтесь или авторизируйтесь на сайте.