»
»

Скачать Столетний старик, который вылез в окно и исчез / The Centenarian Who Climbed Out the Window and Vanished (Феликс Хернгрен) [2013, драма, комедия, приключения, BDRip] - торрент

Нажмите на синюю кнопку, чтобы скачать через торрент бесплатно.

Автор Сообщение
rotenbaron
2014-06-30 20:46
Столетний старик, который вылез в окно и исчез / Hundraåringen som klev ut genom fönstret och försvann
Столетний старик, который вылез в окно и исчез / The Centenarian Who Climbed Out the Window and Vanished Перевод: Субтитры [rus, eng, swe]
Формат: BDRip, MKV, H.264, AC3
Страна: Швеция
Режиссер: Феликс Хернгрен
Жанр: драма, комедия, приключения
Продолжительность: 01:54:17
Год выпуска: 2013

В ролях: Роберт Густафссон, Алан Форд, Ивар Викландер, Давид Виберг, Миа Скярингер, Йенс Хультен, Бианка Крузейро
Описание: В день празднования своего столетия юбиляр вылезает через окно дома престарелых на газон и уходит. Уходит не куда-то, а от чего-то. От бессмысленного доживания в богадельне. В первый же час он ухитряется поссориться с бандитами и уехать в неизвестном направлении. Вскоре становится понятно, что все сто лет его жизни — сплошные приключения. Он, вроде бы, всегда плывет по течению, но почему-то всегда приплывает к любимым занятиям — застольям и разного рода взрывам. Перезнакомившись, при разных юмористических обстоятельствах, с большинством сильных своего времени — Франко, Труменом, Сталиным — и изрядно повлияв на историю двадцатого века, он остается самим собой.
Рейтинг на IMDB: 7.1/10

Видео: 5346 kb/s, 1280х536
Видеокодек:
MPEG-4 AVC/H.264
Аудио: Swedish: AC3, 640 kb/s (6 ch), Russian: AC3, 448 kb/s
Доп. информация: Аутентичный высокохудожественный перевод Братца Способия и Мопеца Ципельмана.
Все предложения и пожелания направлять сюда: http://notabenoid.com/book/52367/blog
Язык субтитров: Русские, Английские, Шведские
Вид субтитров: Вшитые, отключаемые [softsub]


MediaInfo

Общее
Уникальный идентификатор : 238694763918550043094382804398738598990 (0xB392F07894B28D9785A72CDEFEDD6C4E)
Полное имя :\The.Centenarian.Who.Climbed.Out.the.Window.and.Vanished.MC_BS.rus.mkv
Формат : Matroska
Версия формата : Version 4 / Version 2
Размер файла : 5,24 Гбайт
Продолжительность : 1 ч. 54 м.
Общий поток : 6565 Кбит/сек
Дата кодирования : UTC 2014-07-01 15:11:13
Программа кодирования : mkvmerge v7.0.0 ('Where We Going') 64bit built on Jun 9 2014 15:16:27
Библиотека кодирования : libebml v1.3.0 + libmatroska v1.4.1
DURATION : 01:53:10.167000000
NUMBER_OF_FRAMES : 1106
NUMBER_OF_BYTES : 51770
_STATISTICS_WRITING_APP : mkvmerge v7.0.0 ('Where We Going') 64bit built on Jun 9 2014 15:16:27
_STATISTICS_WRITING_DATE_UTC : 2014-07-01 15:11:13
_STATISTICS_TAGS : BPS DURATION NUMBER_OF_FRAMES NUMBER_OF_BYTES

Видео
Идентификатор : 1
Формат : AVC
Формат/Информация : Advanced Video Codec
Профиль формата : High@L4.1
Параметр CABAC формата : Да
Параметр ReFrames формата : 12 кадров
Идентификатор кодека : V_MPEG4/ISO/AVC
Продолжительность : 1 ч. 54 м.
Битрейт : 5346 Кбит/сек
Ширина : 1280 пикселей
Высота : 536 пикселей
Соотношение сторон : 2,40:1
Режим частоты кадров : Постоянный
Частота кадров : 24,000 кадра/сек
Цветовое пространство : YUV
Субдискретизация насыщенности : 4:2:0
Битовая глубина : 8 бит
Тип развёртки : Прогрессивная
Бит/(Пиксели*Кадры) : 0.325
Размер потока : 4,27 Гбайт (81%)
Библиотека кодирования : x264 core 142 r2431kMod ac76440
Настройки программы : cabac=1 / ref=12 / deblock=1:-3:-3 / analyse=0x3:0x133 / me=tesa / subme=11 / psy=1 / fade_compensate=0.00 / psy_rd=1.00:0.00 / mixed_ref=1 / me_range=24 / chroma_me=1 / trellis=2 / 8x8dct=1 / cqm=0 / deadzone=21,11 / fast_pskip=0 / chroma_qp_offset=-2 / threads=12 / lookahead_threads=2 / sliced_threads=0 / nr=0 / decimate=1 / interlaced=0 / bluray_compat=0 / constrained_intra=0 / fgo=0 / bframes=7 / b_pyramid=2 / b_adapt=2 / b_bias=0 / direct=3 / weightb=1 / open_gop=0 / weightp=2 / keyint=250 / keyint_min=24 / scenecut=40 / intra_refresh=0 / rc=crf / mbtree=0 / crf=16.1000 / qcomp=0.65 / qpmin=0 / qpmax=69 / qpstep=4 / ip_ratio=1.30 / pb_ratio=1.20 / aq=1:0.80
Язык : English
Default : Да
Forced : Нет
Коэффициенты матрицы : BT.709

Аудио #1
Идентификатор : 2
Формат : AC-3
Формат/Информация : Audio Coding 3
Расширение режима : CM (complete main)
Параметр Endianness формата : Big
Идентификатор кодека : A_AC3
Продолжительность : 1 ч. 54 м.
Вид битрейта : Постоянный
Битрейт : 640 Кбит/сек
Каналы : 6 каналов
Расположение каналов : Front: L C R, Side: L R, LFE
Частота : 48,0 КГц
Битовая глубина : 16 бит
Метод сжатия : С потерями
Размер потока : 523 Мбайт (10%)
Заголовок : оригинальная дорожка (рекомендуется)
Язык : Swedish
Default : Да
Forced : Да

Аудио #2
Идентификатор : 3
Формат : AC-3
Формат/Информация : Audio Coding 3
Расширение режима : CM (complete main)
Параметр Endianness формата : Big
Идентификатор кодека : A_AC3
Продолжительность : 1 ч. 54 м.
Вид битрейта : Постоянный
Битрейт : 448 Кбит/сек
Каналы : 2 канала
Расположение каналов : Front: L R
Частота : 48,0 КГц
Битовая глубина : 16 бит
Метод сжатия : С потерями
Размер потока : 366 Мбайт (7%)
Заголовок : одноголосый, С.Бросалин
Язык : Russian
Default : Нет
Forced : Нет

Текст #1
Идентификатор : 4
Формат : UTF-8
Идентификатор кодека : S_TEXT/UTF8
Идентификатор кодека/Информация : UTF-8 Plain Text
Заголовок : [MC BS] Высокохудожественный перевод (рекомендуется)
Язык : Russian
Default : Да
Forced : Да

Текст #2
Идентификатор : 5
Формат : UTF-8
Идентификатор кодека : S_TEXT/UTF8
Идентификатор кодека/Информация : UTF-8 Plain Text
Заголовок : english
Язык : English
Default : Нет
Forced : Нет

Текст #3
Идентификатор : 6
Формат : UTF-8
Идентификатор кодека : S_TEXT/UTF8
Идентификатор кодека/Информация : UTF-8 Plain Text
Заголовок : swedish
Язык : Swedish
Default : Нет
Forced : Нет

Меню
00:00:00.000 : en:00:00:00.000
00:15:04.917 : en:00:15:04.917
00:30:15.750 : en:00:30:15.750
00:44:48.583 : en:00:44:48.583
00:58:23.083 : en:00:58:23.083
01:14:06.292 : en:01:14:06.292
01:31:16.583 : en:01:31:16.583
01:48:33.750 : en:01:48:33.750

Писать комментарии на нашем торрент-трекере могут только зарегистрированные пользователи.
Зарегистрируйтесь или авторизируйтесь на сайте.