»
»

Скачать мультфильм Хи-Мэн и Повелители вселенной (1-2 сезоны, 1-4 серии из 39) / He-Man and the Masters of the Universe (Гари Хартл, Джонг-Сик Нэм) [2002-2004, фантастика, фэнтези, боевик, приключения, семейный, DVDRip] DVO - торрент

Скачать мультфильм через торрент бесплатно. Мультфильм доступен на нашем торрент-трекере бесплатно, без регистрации и смс.

Статистика раздачи
0 [ 0 b/s ] ↑ 993.0 MB ↓ 1 [ 0 b/s ]
Автор Сообщение
Miheleniya
2013-12-06 20:40
Хи-Мэн и Повелители вселенной / Хи-Мен и Властелины Вселенной / He-Man and the Masters of the Universe (1-2 сезоны, 1-4 серии из 39)
________ «A sword will choose a master, a boy will become a man, and a hero will be born»
Хи-Мэн и Повелители вселенной
Перевод: Любительский (двухголосый) | LE-Production |, cубтитры: русские (полные, *srt)

Формат: DVDRip, AVI, XviD, MP3
Страна: США
Режиссер: Гари Хартл, Джонг-Сик Нэм
Жанр: фантастика, фэнтези, боевик, приключения, семейный
Продолжительность: 4 х ~00:22:00
Год выпуска: 2002-2004
В ролях: Кэм Кларк, Гари Чок, Скотт МакНил, Брайан Добсон, Лиза Энн Бели, Кэтлин Барр, Гейб Хаут, Николь Оливер, Пол Добсон, Майкл Донован

Роли озвучивали: Тимиркан Сиюхов и Маргарита Щелкунова

Описание: В день своего 16-летия Адам, принц королевства Вечности, получает в распоряжение Меч Могущества – магический артефакт, превращающий его в Хи-Мена, защитника планеты. Вместе с Властелинами Вселенной, командой сорвиголов, и верным другом Боевым Котом, Хи-Мен ведет борьбу со Скелетом и его Воинами Зла, стремящимися захватить таинственный замок Серого Черепа и завладеть его секретами.



Видео: 720x400 (1.80:1), 23.975 fps, XviD MPEG-4 ~1232 kbps avg, 0.18 bit/pixel
Аудио# 1: 48 kHz, MPEG Layer 3, 2 ch, ~128.00 kbps avg | русский, LE-Production |
Аудио# 2: 48 kHz, MPEG Layer 3, 2 ch, ~128.00 kbps avg | английский, оригинал |

Семпл

Доп. информация:
Алексис.........покупка дисков, рип, перевод
connor............тайминг субтитров
Epetuk1727....корректировка, перевод стихов

Список серий
Сезон 1:
01. Начало, часть 1 / The Beginning - Part 1
02. Начало, часть 2 / The Beginning - Part 2
03. Начало, часть 3 / The Beginning - Part 3
04. Смелость Адама / The Courage of Adam
05. Небесная война / Skywar
06. В глубине / The Deep End
07. Уроки / Lessons
08. Песня сирены / The Siren's Song
интериквел 1: Иконы зла: Мохнатый / Icons of Evil: BeastMan
09. Кровные узы / The Ties That Bind
10. Драконий выводок / Dragon's Brood
11. Разворот / Turnabout
интериквел 2: Иконы зла: Мермен / Icons of Evil: Mer-Man
12. Горечь Меканека / Mekaneck's Lament
13. Ночь темных зверей / Night of the Shadowbeasts
14. Подземный мир / Underworld
15. Монстр внутри / The Monster Within
16. Тайна Анват Гара / The Mystery of Anwat Gar
17. Гамбит Робото / Roboto's Gambit
интериквел 3: Иконы зла: Три-Клоп / Icons of Evil: Tri-Klops
18. Доверие / Trust
19. Сад Орко / Orko's Garden
20. Гордость Базз-Оффа / Buzz-Off's Pride
21. Змеиная яма / Snake Pit
22. Остров / The Island
23. Сладкий запах победы / The Sweet Smell of Victory
24. Разделение / Separation
25. Совет Зла, часть 1 / Council of Evil - Part 1
26. Совет Зла, часть 2 / Council of Evil - Part 2

Сезон 2:

27. Последняя преграда / The Last Stand
28. Прогулка с драконами / To Walk with Dragons
29. Из прошлого / Out of the Past
"Властелины Вселенной против людей-змей":
30. Восстание людей-змей, часть 1 / Rise of the Snakemen - Part 1
31. Восстание людей-змей, часть 2 / Rise of the Snakemen - Part 2
32. Цена обмана / The Price of Deceit
интериквел 4: Иконы зла: Капкан / Icons of Evil: TrapJaw
33. О машинах и людях / Of Machines and Men
34. Вторая кожа / Second Skin
35. Сила Серого Черепа / The Power of Grayskull
36. Паутина зла / Web of Evil
интериквел 5: Хэллоуин мечты 2003: Власть страха / Dream Halloween 2003: The Power of Fear
37. Шипение змеи / Rattle of the Snake
38. История / History
интериквел 6: Спасти Ивил-Лин / To Save Evil-Lyn
39. Пробуждение змея / Awaken the Serpent

MediaInfo

Общее
Полное имя : He-Man.2002.DVDRip.le-production\He-Man.2002.S01.DVDRip.le-production\He-Man.2002.S01E01.The.Beginning,p1.DVDRip.le-production.avi
Формат : AVI
Формат/Информация : Audio Video Interleave
Размер файла : 249 Мбайт
Продолжительность : 23 м.
Общий поток : 1503 Кбит/сек
Программа кодирования : VirtualDubMod 1.5.10.2 (build 2540/release)
Библиотека кодирования : VirtualDubMod build 2540/release
Правообладатель : © 2010 FilmStore Group
IRIP : FilmStore Group

Видео
Идентификатор : 0
Формат : MPEG-4 Visual
Профиль формата : Advanced Simple@L5
Параметр BVOP формата : 2
Параметр QPel формата : Нет
Параметр GMC формата : Без точки перехода
Параметр матрицы формата : Выборочная
Режим смешивания : Сжатый битовый поток
Идентификатор кодека : DX50
Идентификатор кодека/Подсказка : DivX 5
Продолжительность : 23 м.
Битрейт : 1233 Кбит/сек
Ширина : 720 пикс.
Высота : 400 пикс.
Соотношение сторон : 16:9
Частота кадров : 23,976 кадр/сек
Цветовое пространство : YUV
Подвыборка цветности : 4:2:0
Битовая глубина : 8 бит
Тип развёртки : Прогрессивная
Метод сжатия : С потерями
Бит/(Пиксели*Кадры) : 0.179
Размер потока : 204 Мбайт (82%)
Библиотека кодирования : XviD 1.2.1 (UTC 2008-12-04)

Аудио #1
Идентификатор : 1
Формат : MPEG Audio
Версия формата : Version 1
Профиль формата : Layer 3
Режим : Joint stereo
Расширение режима : MS Stereo
Идентификатор кодека : 55
Идентификатор кодека/Подсказка : MP3
Продолжительность : 23 м.
Вид битрейта : Постоянный
Битрейт : 128 Кбит/сек
Канал(ы) : 2 канала(ов)
Частота : 48,0 КГц
Метод сжатия : С потерями
Размер потока : 21,2 Мбайт (9%)
Выравнивание : Соединение по промежуткам
Продолжительность промежутка : 42 мс. (1,00 видеокадр)
Время предзагрузки промежутка : 504 ms

Аудио #2
Идентификатор : 2
Формат : MPEG Audio
Версия формата : Version 1
Профиль формата : Layer 3
Режим : Joint stereo
Расширение режима : MS Stereo
Идентификатор кодека : 55
Идентификатор кодека/Подсказка : MP3
Продолжительность : 23 м.
Вид битрейта : Постоянный
Битрейт : 128 Кбит/сек
Канал(ы) : 2 канала(ов)
Частота : 48,0 КГц
Метод сжатия : С потерями
Размер потока : 21,2 Мбайт (9%)
Выравнивание : Соединение по промежуткам
Продолжительность промежутка : 42 мс. (1,00 видеокадр)
Время предзагрузки промежутка : 504 ms


Информация о торренте:
Размер содержимого: 993.0 MB
Скачан: 748 раз
Статус: Обновляемая раздача
Зарегистрирован на трекере: 2013-12-22 21:41
Скачать торрент


Поддержи раздачу — поставь лайк:
E-mail:
* Это обновляемая раздача и мы можем вас информировать об обновлении торрента в ней.

alexxx-berkut
2013-12-07 10:48
Спасибо.Я думаю сыну понравится. :nice:
Miheleniya
2013-12-22 21:43
alexxx-berkut
Не за что! ;)




Добавлена 4 серия.
Писать комментарии на нашем торрент-трекере могут только зарегистрированные пользователи.
Зарегистрируйтесь или авторизируйтесь на сайте.