»
»

Скачать фильм Ип Ман 2 / Ip Man 2 (Уилсон Ип) [2010, Гонконг, боевик, биография, история, BDRip720p] MVO - торрент

Скачать фильм через торрент бесплатно. Фильм доступен на нашем торрент-трекере бесплатно, без регистрации и смс.

Download denied
Sorry, but you can't download this torrent due to copyright restrictions.
Автор Сообщение
_andreyko_
2012-10-22 20:14
Ип Ман 2 / Ip Man 2
Перевод: Профессиональный (многоголосый, закадровый)
Субтитры: отсутствуют
Формат: BDRip, MKV, H.264, AC3
Страна: Гонконг
Режиссер: Уилсон Ип / Wilson Yip
Жанр: боевик, биография, история
Продолжительность: 01:48:06
Год выпуска: 2010

В ролях: Донни Ен, Линн Хунг, Саймон Ям, Саммо Хунг Кам-Бо, Хуан Сяомин, Сю-Вонг Фан, Кент Чэн, Даррен Шахлави, Эмбер Чиа, Хак-Он Фанг, Менг Ло, Сиу Ланг Сик, Ю-Ханг То, Чарльз Майер, Канин Нго

Описание: Вторая Мировая война закончилась, но Китай все еще слаб и беден. Ип Ман открывает свою школу боевых искусств, однако завоевать свое место под солнцем оказывается непросто — чтобы избежать проблем, Ип Ману нужно сначала завоевать уважение представителей других кунгфу-школ, а председательствующему в их ассоциации Хунгу Ип Ман не понравился с первого взгляда. А тем временем в Гонконге усиливается присутствие британцев, и некоторые из них плевать хотели на китайские традиции и обычаи.

Рейтинг на КиноПоиск.RU: 7.678
Рейтинг на IMDB: 7.5/10
Рейтинг MPAA: R

Видео: 1280x544p (2.35:1), 23.976 fps, 23.976 fps, AVC MPEG4(x264), High@L4.0 ~5245 kb/s, 0.314 bit/pixel
Аудио: Русский 48KHz, AC3 Dolby Digital, 3/2 (L,C,R,l,r) + LFE ch, 448 kbps [Профессиональный (многоголосый, закадровый)]

Дополнительно: эксклюзивный перевод от Gremlin Creative Studio

Семпл

Доп. информация
Дата выхода релиза от GCS: 17.10.2012
Роли озвучивали: Gizma, Wizard, Satory (Вин Син), Mirra (др.женские роли)
Качественный перевод, единственный, сделанный со знанием дела!
Отличие Ver 2: гонконгская версия фильма: другая заставка, другие иероглифы, подписи под ними на англ.языке и из-за всего этого чуть иное оформление начала и конца.
Ссылка на HDRip (2.06ГБ) раздачу - http://tfile.me/forum/viewtopic.php?t=558499
MediaInfo

Complete name : x:\Ip Man 2.720p.BDRip.GCS.mkv
Format : Matroska
Format version : Version 2
File size : 4.26 GiB
Duration : 1h 48mn
Overall bit rate : 5 640 Kbps
Encoded date : UTC 2012-10-19 11:44:34
Writing application : mkvmerge v4.4.0 ('Die Wiederkehr') сборка от Oct 31 2010 21:52:48
Writing library : libebml v1.0.0 + libmatroska v1.0.0

Video
ID : 1
Format : AVC
Format/Info : Advanced Video Codec
Format profile : Baseline@L1.3
Format settings, CABAC : No
Format settings, ReFrames : 2 frames
Muxing mode : Header stripping
Codec ID : V_MPEG4/ISO/AVC
Duration : 1h 48mn
Bit rate : 5 245 Kbps
Width : 1 280 pixels
Height : 544 pixels
Display aspect ratio : 2.35:1
Frame rate : 23.976 fps
Color space : YUV
Chroma subsampling : 4:2:0
Bit depth : 8 bits
Scan type : Progressive
Bits/(Pixel*Frame) : 0.314
Stream size : 3.84 GiB (90%)
Title : Ip Man 2 Ver2
Writing library : x264 core 116 r2074 2641b9e
Encoding settings : cabac=0 / ref=2 / deblock=1:0:0 / analyse=0x1:0x111 / me=umh / subme=6 / psy=1 / psy_rd=1.00:0.00 / mixed_ref=1 / me_range=16 / chroma_me=1 / trellis=0 / 8x8dct=0 / cqm=0 / deadzone=21,11 / fast_pskip=1 / chroma_qp_offset=-2 / threads=3 / sliced_threads=0 / nr=0 / decimate=1 / interlaced=0 / bluray_compat=0 / constrained_intra=0 / bframes=0 / weightp=0 / keyint=250 / keyint_min=23 / scenecut=40 / intra_refresh=0 / rc_lookahead=40 / rc=abr / mbtree=1 / bitrate=5245 / ratetol=1.0 / qcomp=0.60 / qpmin=0 / qpmax=69 / qpstep=4 / ip_ratio=1.40 / aq=1:1.00
Default : Yes
Forced : No

Audio
ID : 2
Format : AC-3
Format/Info : Audio Coding 3
Mode extension : CM (complete main)
Muxing mode : Header stripping
Codec ID : A_AC3
Duration : 1h 48mn
Bit rate mode : Constant
Bit rate : 448 Kbps
Channel(s) : 6 channels
Channel positions : Front: L C R, Side: L R, LFE
Sampling rate : 48.0 KHz
Bit depth : 16 bits
Compression mode : Lossy
Stream size : 346 MiB (8%)
Title : MVO_GCS_5.1
Language : Russian
Default : Yes
Forced : No

DraKuLa21
2013-01-08 01:46
Перезалейте сэмпл
_andreyko_
2013-01-17 00:50
Изменять раздачу не могу, надо модера просить, так что пока так: перезалитый семпл.
Писать комментарии на нашем торрент-трекере могут только зарегистрированные пользователи.
Зарегистрируйтесь или авторизируйтесь на сайте.