»
»

Скачать фильм Красные огни / Red Lights (Родриго Кортес) [2012, триллер, драма, детектив, HDRip-AVC] DUB - торрент

Скачать торрент фильм можно, нажав на синюю кнопку ниже. Фильм доступен на нашем торрент-трекере бесплатно, без регистрации и смс.

Статистика раздачи
8 [ 0 b/s ] ↑ 1.4 GB ↓ 3 [ 0 b/s ]
Автор Сообщение
BroadCastller
2012-09-24 17:28
Красные огни / Red Lights
Красные огни / Red Lights Перевод: Профессиональный (полное дублирование)
Субтитры: Английские (2 вида)
Формат: HDRip-AVC, MKV, H.264, AC3
Страна: Испания, США
Режиссер: Родриго Кортес
Жанр: триллер, драма, детектив
Продолжительность: 01:53:51
Год выпуска: 2012

В ролях: Роберт Де Ниро, Сигурни Уивер, Киллиан Мёрфи, Элизабет Олсен, Тоби Джонс, Джоэли Ричардсон, Крэйг Робертс, Берн Горман, Карен Шенас-Дэвид, Жан Корнет
Описание: Ученые-скептики Маргарет Мэтисон и ее ассистент, Том Бакли, занимаются разоблачением шарлатанов. Изучение паранормального приводит их к столкновению с давним противником доктора Мэтисон — человеком по имени Сильвер.

Объявив о своем возвращении, Сильвер впервые за многие годы выступает перед широкой публикой. Знавшие экстрасенса люди не забыли, что незадолго до добровольного ухода Сильвера со сцены таинственной смертью погиб основной критик его деятельности.




Видео: 1024x436p (2.35:1), 23.976 fps, AVC MPEG4(x264), High@L4.1 ~1245 Kbps avg, 0.116 bit/pixel
Аудио#1: Русский: 48 kHz, AC3 Dolby Digital, 6 ch, ~384 kbps avg [Профессиональный (полное дублирование)]
Аудио#2: Английский: 48 kHz, AC3 Dolby Digital, 2 ch, ~192 kbps avg [Оригинал]

MediaInfo
General
Unique ID : 201636750819994669083763578172486442347 (0x97B1D35C7165654B8CD02AD848D7DD6B)
Complete name : C:\Documents and Settings\User\Мои документы\Red.Lights.2012.Dc1.HDRip-AVC.mkv
Format : Matroska
Format version : Version 2
File size : 1.45 GiB
Duration : 1h 53mn
Overall bit rate : 1 823 Kbps
Movie name : Красные огни / Red Lights (2012) BDRip-AVC rip by Rulya74
Encoded date : UTC 2012-09-23 21:17:30
Writing application : mkvmerge v5.7.0 ('The Whirlwind') built on Jul 8 2012 20:08:51
Writing library : libebml v1.2.3 + libmatroska v1.3.0

Video
ID : 1
Format : AVC
Format/Info : Advanced Video Codec
Format profile : High@L4.1
Format settings, CABAC : Yes
Format settings, ReFrames : 7 frames
Codec ID : V_MPEG4/ISO/AVC
Duration : 1h 53mn
Bit rate : 1 245 Kbps
Width : 1 024 pixels
Height : 436 pixels
Display aspect ratio : 2.35:1
Frame rate : 23.976 fps
Color space : YUV
Chroma subsampling : 4:2:0
Bit depth : 8 bits
Scan type : Progressive
Bits/(Pixel*Frame) : 0.116
Stream size : 986 MiB (66%)
Writing library : x264 core 128 r2216 198a7ea
Encoding settings : cabac=1 / ref=7 / deblock=1:-1:-1 / analyse=0x3:0x113 / me=umh / subme=10 / psy=1 / psy_rd=1.00:0.05 / mixed_ref=1 / me_range=32 / chroma_me=1 / trellis=2 / 8x8dct=1 / cqm=0 / deadzone=21,11 / fast_pskip=0 / chroma_qp_offset=-3 / threads=16 / lookahead_threads=2 / sliced_threads=0 / nr=0 / decimate=1 / interlaced=0 / bluray_compat=0 / constrained_intra=0 / bframes=8 / b_pyramid=2 / b_adapt=2 / b_bias=0 / direct=3 / weightb=1 / open_gop=0 / weightp=2 / keyint=240 / keyint_min=22 / scenecut=40 / intra_refresh=0 / rc=2pass / mbtree=0 / bitrate=1245 / ratetol=1.0 / qcomp=0.60 / qpmin=10 / qpmax=51 / qpstep=4 / cplxblur=20.0 / qblur=0.5 / ip_ratio=1.40 / pb_ratio=1.30 / aq=2:1.00
Default : Yes
Forced : No

Audio #1
ID : 2
Format : AC-3
Format/Info : Audio Coding 3
Mode extension : CM (complete main)
Format settings, Endianness : Big
Codec ID : A_AC3
Duration : 1h 53mn
Bit rate mode : Constant
Bit rate : 384 Kbps
Channel(s) : 6 channels
Channel positions : Front: L C R, Side: L R, LFE
Sampling rate : 48.0 KHz
Bit depth : 16 bits
Compression mode : Lossy
Stream size : 313 MiB (21%)
Title : Дубляж
Language : Russian
Default : Yes
Forced : No

Audio #2
ID : 3
Format : AC-3
Format/Info : Audio Coding 3
Mode extension : CM (complete main)
Format settings, Endianness : Big
Codec ID : A_AC3
Duration : 1h 53mn
Bit rate mode : Constant
Bit rate : 192 Kbps
Channel(s) : 2 channels
Channel positions : Front: L R
Sampling rate : 48.0 KHz
Bit depth : 16 bits
Compression mode : Lossy
Stream size : 156 MiB (11%)
Title : Оригинал
Language : English
Default : No
Forced : No

Text #1
ID : 4
Format : UTF-8
Codec ID : S_TEXT/UTF8
Codec ID/Info : UTF-8 Plain Text
Title : Full
Language : English
Default : No
Forced : No

Text #2
ID : 5
Format : UTF-8
Codec ID : S_TEXT/UTF8
Codec ID/Info : UTF-8 Plain Text
Title : SDH
Language : English
Default : No
Forced : No

Menu
00:00:00.000 : en:Chapter 01
00:11:11.962 : en:Chapter 02
00:19:44.308 : en:Chapter 03
00:27:13.381 : en:Chapter 04
00:39:42.671 : en:Chapter 05
00:49:09.237 : en:Chapter 06
00:59:37.323 : en:Chapter 07
01:11:02.216 : en:Chapter 08
01:23:46.104 : en:Chapter 09
01:30:14.575 : en:Chapter 10
01:37:08.322 : en:Chapter 11
01:48:04.436 : en:Chapter 12


Информация о торренте:
Размер содержимого: 1.4 GB
Скачан: 6088 раз
Статус: Проверен
Зарегистрирован на трекере: 2012-09-24 17:28
Скачать торрент


Поддержи раздачу — поставь лайк:
BroadCastller
2012-09-24 17:28
Приятного просмотра!
taker2012
2012-09-24 18:42
Фильм-середнячок. На пол раза.
minimim
2012-09-24 19:06
Нормальный фильм. По предыдущим комментам ожидал что и в самом деле будет "середнячок", как минимум что-то дешевое, но кино втянуло и разочарований нет.
akhnaton
2012-09-24 19:31
А Я ВОТ думаю посмотрю сегодня, отпешусь объективно))) P.S. Смотреть буду под пиво
mikrosxema
2012-09-24 20:16
хороший фильм! Благо режиссер испанец! ну и де ниро на высоте!!!
Exsors
2012-09-24 20:16
akhnaton написал(а):
А Я ВОТ думаю посмотрю сегодня, отпешусь объективно))) P.S. Смотреть буду под пиво

Под пиво и объективная оценка?
мы-кола
2012-09-24 21:10
под пиво оценка всегда объективна,а если ещё и под водочку - то она всегда будет высокой :drink:
yurasik62
2012-09-24 22:51
Хороший фильм
akhnaton
2012-09-25 16:31
Фильм классный, не боевик конечно))) Концовка неожиданная. Кино на 3+ или 4- кому как нравится из 5ти. мрачноват
akhnaton
2012-09-25 16:33
Exsors написал(а):
akhnaton написал(а):
А Я ВОТ думаю посмотрю сегодня, отпешусь объективно))) P.S. Смотреть буду под пиво

Под пиво и объективная оценка?
2 банки после работы чтоб мозг не рванулнаХ))) :drink:
AlexFilth777
2012-09-25 18:25
Хороший довольно интерестный фильм. :pease:
Nadovskiy
2012-09-25 22:10
фильм - хорош. Игра класная.
АлеКСанZER(SHURICO)
2012-09-26 00:09
с превеликим удовольствием гляну эту киношку, спбо!
SaBiP
2012-09-26 08:51
BroadCastller
Спасибо за работу.Коменты короткие,но положительные.Надо качнуть и глянуть.Всё таки Де Ниро!
Писать комментарии на нашем торрент-трекере могут только зарегистрированные пользователи.
Зарегистрируйтесь или авторизируйтесь на сайте.