»
»

Скачать фильм День Святого Валентина / Valentine's Day (Гэрри Маршалл) [2010, мелодрама, комедия, HDRip-AVC] DUB - торрент

Скачать торрент фильм можно, нажав на синюю кнопку ниже. Фильм доступен на нашем торрент-трекере бесплатно, без регистрации и смс.

Статистика раздачи
0 [ 0 b/s ] ↑ 2.5 GB ↓ 1 [ 0 b/s ]
Автор Сообщение
jeenart
2011-05-15 09:06
День Святого Валентина / Valentine's Day
День Святого Валентина / Valentine's Day Перевод: Профессиональный (полное дублирование), cубтитры: отсутствуют
Формат: HDRip-AVC, MKV, H.264, AC3
Страна: США
Режиссер: Гэрри Маршалл
Жанр: мелодрама, комедия
Продолжительность: 02:04:39
Год выпуска: 2010

В ролях: Джессика Альба, Кэти Бейтс, Джессика Бил, Брэдли Купер, Эрик Дэйн, Патрик Демпси, Гектор Элизондо, Джейми Фокс, Дженнифер Гарнер, Тофер Грейс, Энн Хэтэуэй, Картер Дженкинс, Эштон Катчер, Куин Латифа, Тэйлор Лотнер, Джордж Лопез, Эмма Робертс, Джулия Робертс, Тейлор Свифт

Описание: Судьбы многих влюбленных и одиноких сердец в Лос-Анджелесе переплетаются в ожидании одного единственного Дня — Дня Всех Влюбленных — Дня Святого Валентина.



Видео: 1280 x 720 (1.778), 23.976 fps, AVC х264, High@L4.1, ~ 2 501 Kbps, 0.113 bit/pixel
Аудио: 48 kHz, AC3 Dolby Digital, 3/2 (L,C,R,l,r) + LFE ch, ~384 kbps

Автор Рипа:

Отчёт MediaInfo
General
Unique ID : 201322313168662657214053698873750621644 (0x977544635196D8C5BD53D9D872F68DCC)
Complete name : E:\РЕЛИЗЫ\Все релизы 15\den_svjtogo_valentina_[tfile.ru].mkv
Format : Matroska
File size : 2.51 GiB
Duration : 2h 4mn
Overall bit rate : 2 886 Kbps
Movie name : Rip by victordan 95
Encoded date : UTC 2010-12-26 17:33:09
Writing application : mkvmerge v3.2.0 ('Beginnings') built on Feb 12 2010 16:46:17
Writing library : libebml v0.7.9 + libmatroska v0.8.1

Video
ID : 1
Format : AVC
Format/Info : Advanced Video Codec
Format profile : High@L4.1
Format settings, CABAC : Yes
Format settings, ReFrames : 3 frames
Format settings, GOP : M=4, N=16
Codec ID : V_MPEG4/ISO/AVC
Duration : 2h 4mn
Bit rate mode : Variable
Bit rate : 2 501 Kbps
Maximum bit rate : 17.5 Mbps
Width : 1 280 pixels
Height : 720 pixels
Display aspect ratio : 16:9
Frame rate : 23.976 fps
Color space : YUV
Chroma subsampling : 4:2:0
Bit depth : 8 bits
Scan type : Progressive
Bits/(Pixel*Frame) : 0.113
Stream size : 2.13 GiB (85%)
Writing library : x264 core 108 r1788 c764e29
Encoding settings : cabac=1 / ref=1 / deblock=1:0:0 / analyse=0x3:0x3 / me=dia / subme=1 / psy=1 / psy_rd=0.00:0.00 / mixed_ref=0 / me_range=16 / chroma_me=1 / trellis=0 / 8x8dct=1 / cqm=0 / deadzone=21,11 / fast_pskip=1 / chroma_qp_offset=0 / threads=3 / sliced_threads=0 / slices=4 / nr=0 / decimate=1 / interlaced=0 / constrained_intra=0 / bframes=3 / b_pyramid=1 / b_adapt=1 / b_bias=0 / direct=1 / weightb=1 / open_gop=0 / weightp=0 / keyint=24 / keyint_min=1 / scenecut=40 / intra_refresh=0 / rc_lookahead=0 / rc=abr / mbtree=0 / bitrate=2501 / ratetol=1.0 / qcomp=0.60 / qpmin=0 / qpmax=51 / qpstep=4 / vbv_maxrate=17500 / vbv_bufsize=14500 / ip_ratio=1.10 / pb_ratio=1.10 / aq=1:1.00 / nal_hrd=vbr
Language : English

Audio
ID : 2
Format : AC-3
Format/Info : Audio Coding 3
Mode extension : CM (complete main)
Codec ID : A_AC3
Duration : 2h 4mn
Bit rate mode : Constant
Bit rate : 384 Kbps
Channel(s) : 6 channels
Channel positions : Front: L C R, Side: L R, LFE
Sampling rate : 48.0 KHz
Bit depth : 16 bits
Compression mode : Lossy
Stream size : 342 MiB (13%)
Title : AC3@5.1 384 Dub
Language : Russian


Информация о торренте:
Размер содержимого: 2.5 GB
Скачан: 25149 раз
Статус: Проверен
Зарегистрирован на трекере: 2011-05-15 09:06
Скачать торрент


Поддержи раздачу — поставь лайк:
misteryo
2011-05-15 10:37
Ну вполне возможно что эта кучка второсортных актеришек что нибудь путнее и выдаст но я рисковать не буду. Автору спасибо
gumapumba
2011-05-15 18:09
misteryo

зря! классные актеры,отличный фильм!
petrishef
2011-05-24 00:51
Фильм классный советую качать.
Пац@н
2011-05-25 18:24
Спасибо сейчас посмотрим
LidiaM
2011-05-28 13:23
Спасибо !!! :thanks:
twilight_dream
2011-06-02 23:06
АААААААААААААААААААААААААА!
Когда эту дрянь перестанут выкладывать.
Ненавижу комедии с влюбленными дибилами и дибилихами.
АнИм[Эээ]шКа
2011-06-05 14:53
не нравиться...не х.. коментировать тогда..тоже мне...сними фильм лучше
soulislife55
2011-06-21 00:08
классный фильм, смотрела в кинотеатре, очень понравился, качаю и смотрю еще раз!!!! :thanks: :D
Winkie
2011-06-23 19:14
Актерский состав классный) спасибо!!!! ща посмотрим) :thanks:
tokakhika
2011-06-27 00:32
Классный,легкий фильм! Спасибо!
Clodia_Rise
2011-11-21 14:37
Не часто такой актерский состав можно увидеть)
Bella Jazz
2012-02-12 21:15
Люди,дайте пожалуйста скорости!!!!!!!!!!!!!!!!!!!!!
Derek7
2012-02-14 20:07
Посмотримс....Спасибо!!!
brat287
2012-02-14 21:29
Пасиба!)
Писать комментарии на нашем торрент-трекере могут только зарегистрированные пользователи.
Зарегистрируйтесь или авторизируйтесь на сайте.