»
»

Скачать фильм Стоун / Stone (Джон Кёрран) [2010, триллер, драма, криминал, DVDRip-AVC] DUB - торрент

Нажмите на синюю кнопку, чтобы скачать фильм через торрент бесплатно. Фильм доступен на нашем торрент-трекере бесплатно, без регистрации и смс.

Статистика раздачи
3 [ 0 b/s ] ↑ 1.5 GB ↓ 2 [ 0 b/s ]
Автор Сообщение
Lex1905
2010-11-04 16:07
Стоун / Stone
Стоун / Stone Перевод: Профессиональный (полное дублирование) R5, cубтитры: отсутствуют
Формат: DVDRip, MKV, H.264, AC3
Страна: США
Режиссер: Джон Кёрран
Жанр: триллер, драма, криминал
Продолжительность: 01:40:44
Год выпуска: 2010
В ролях: Роберт Де Ниро, Эдвард Нортон, Милла Йовович, Фрэнсис Конрой, Энвер Гьокай, Пеппер Бинкли, Сандра Лав Элдридж, Рэйчел Луизелл, Кайли Тэрнопол

Описание: Жизнь тюремщика Джека превращается в сплошной кошмар. Примерный семьянин и «добрый» полицейский, он всегда помогал раскаявшимся преступникам получить освобождение. Стоун — убийца, осужденный пожизненно, и свобода ему не светит. Однако он пойдет на все, чтобы вырваться на волю, и Джек — его последний шанс. Красавица-жена Стоуна соблазняет тюремщика… Перед Джеком ужасный выбор — или разрушить всю свою жизнь и семью, или выпустить на волю маньяка. И чем больше он пытается выбраться из этой западни, тем сильнее запутывается.

Рейтинг КиноПоиск.RU: 5.892
Рейтинг IMDB: 6.8/10
Рейтинг MPAA: R

Видео: 720x576@1024x576 (1,7:1), 25 fps, V_MPEG4 (x264), High@L3.1 ~1626 kbps, 0.16 bit/pixel
Аудио: 48 kHz, AC3, 6 ch, 448.00 kbps





MediaInfo
Format : Matroska
File size : 1.46 GiB
Duration : 1h 38mn
Overall bit rate : 2 116 Kbps
Movie name : Stoun.chopper887
Encoded date : UTC 2010-11-04 12:28:09
Writing application : mkvmerge v3.0.0 ('Hang up your Hang-Ups') built on Dec 12 2009 15:20:35
Writing library : libebml v0.7.9 + libmatroska v0.8.1

Video
ID : 1
Format : AVC
Format/Info : Advanced Video Codec
Format profile : High@L3.1
Format settings, CABAC : Yes
Format settings, ReFrames : 9 frames
Muxing mode : Container profile=Unknown@3.1
Codec ID : V_MPEG4/ISO/AVC
Duration : 1h 38mn
Bit rate : 1 626 Kbps
Nominal bit rate : 1 667 Kbps
Width : 720 pixels
Height : 576 pixels
Display aspect ratio : 16:9
Original display aspect ratio : 5:4
Frame rate : 25.000 fps
Standard : PAL
Resolution : 24 bits
Colorimetry : 4:2:0
Scan type : Progressive
Bits/(Pixel*Frame) : 0.157
Stream size : 1.12 GiB (77%)
Title : Stoun.chopper887
Writing library : x264 core 104 r1713 c276662
Encoding settings : cabac=1 / ref=9 / deblock=1:-2:-1 / analyse=0x3:0x133 / me=umh / subme=9 / psy=1 / psy_rd=1.00:0.10 / mixed_ref=1 / me_range=32 / chroma_me=1 / trellis=2 / 8x8dct=1 / cqm=0 / deadzone=21,11 / fast_pskip=0 / chroma_qp_offset=-3 / threads=3 / sliced_threads=0 / nr=0 / decimate=1 / interlaced=0 / constrained_intra=0 / bframes=9 / b_pyramid=2 / b_adapt=2 / b_bias=0 / direct=3 / weightb=1 / open_gop=0 / weightp=2 / keyint=250 / keyint_min=25 / scenecut=40 / intra_refresh=0 / rc_lookahead=80 / rc=2pass / mbtree=1 / bitrate=1667 / ratetol=1.0 / qcomp=0.60 / qpmin=10 / qpmax=51 / qpstep=4 / cplxblur=20.0 / qblur=0.5 / ip_ratio=1.40 / aq=1:1.00
Language : English

Audio
ID : 2
Format : AC-3
Format/Info : Audio Coding 3
Codec ID : A_AC3
Duration : 1h 38mn
Bit rate mode : Constant
Bit rate : 448 Kbps
Channel(s) : 6 channels
Channel positions : Front: L C R, Surround: L R, LFE
Sampling rate : 48.0 KHz
Stream size : 316 MiB (21%)
Title : Дубляж



Информация о торренте:
Размер содержимого: 1.5 GB
Скачан: 14429 раз
Статус: Проверен
Зарегистрирован на трекере: 2010-11-04 16:07
Скачать торрент


Поддержи раздачу — поставь лайк:

fyasko
2010-11-04 16:32
СпасиБО!!! ЖДАЛ !!!
*Globus*
2010-11-04 16:53
Ну кто скажет, как фильм ???...
Петрик Пьяточкин
2010-11-04 16:55
Посмотрел я фильм. Ничего особого в нем нет, средний, так себе, как на меня. Может кто и сделает для себя выводы какие-то после просмотра.
IceTysi
2010-11-04 17:01
Посмотрел я фильм.интересный фильмы,про тюремчика стоун...качаите :nice:
BotiSmnu
2010-11-04 17:03
нормальное кино !!!! советую ВСЕМ
hannibal2009
2010-11-04 17:09
Спасибоу!!!)))
sanyok123
2010-11-04 17:11
лично мне фильм не понравился фильм на любителя на один раз!
KoK77726
2010-11-04 17:15
отстой полный смотреть нельзя самый отвратительный фильм с де ниро которы я смотрел не советую фильм психологический полная дрянь
vnimanie69
2010-11-04 17:44
Всем Привет!Фильм полное г...,на 0.5 раз.
Se®gio
2010-11-04 20:03
фильм, конечно, пурген, но... заставляет задуматься, особенно тех кто плывет по течению... да-да, я задумался - может стоило что-то сделать раньше?
Viktorito
2010-11-04 20:11
Ещё один жалкий фильм о том какие люди Г...! Да и фильм тоже Г...!!Да и сам я Г...!!! Пошло всё в Ж...!!!
Full HD
2010-11-04 21:51
Да согласен фильм одстой !!!!!!!!!!!!!!!
БАСОТА
2010-11-05 10:03
Фильм на редкость гавно!В пустую потраченное время!
chatty84
2010-11-05 14:31
спасибо!
Писать комментарии на нашем торрент-трекере могут только зарегистрированные пользователи.
Зарегистрируйтесь или авторизируйтесь на сайте.