»
»

Скачать фильм Синичка (3 сезон 1-4 серии из 4) (Карен Захаров) / [2020, детектив, WEB-DLRip-AVC] - торрент

Бесплатные торренты всегда на нашем сайте и в хорошем качестве! Фильм доступен на нашем торрент-трекере бесплатно, без регистрации и смс.

Статистика раздачи
0 [ 0 b/s ] ↑ 2.4 GB ↓ 0 [ 0 b/s ]
Автор Сообщение
BLIZNEC W
2020-05-23 20:52
Синичка (3 сезон 1-4 серии из 4)
Синичка Формат: WEB-DLRip-AVC, MKV, H.264, AC3
Режиссер: Карен Захаров
Жанр: детектив
Продолжительность: 4 x ~ 00:50:34
Год выпуска: 2020

В ролях: Глафира Тарханова, Сергей Губанов, Кирилл Запорожский, Джульетта Геринг, Иван Бровин, Татьяна Лютаева, Аристарх Ливанов, Евгения Ярушникова, Кирилл Емельянов, Софья Ардова, Мария Ульянова, Ирина Баринова, Станислав Тикунов, Александр Филатов (III), Вячеслав Ахмедяров, Александр Луканичев, Кирилл Новышев, Регина Полякова, Юлия Абрамова, Эрик Яралов, Виктория Чулкова, Семён Арзуманов, Елена Экиз, Сергей Фомичёв, Маргарита Дьяченкова

Описание: Психолог Ульяна Синицына и следователь Игорь Левин сталкиваются с новым запутанным делом. В загородном особняке найдено тело известного дизайнера. Убийца оставил рядом с жертвой таинственное послание – криптограммы. Чтобы понять их смысл и выяснить личность преступника, Ульяна использует свой уникальный метод. Однако вскоре она понимает, что впервые оказалась в тупике. Единственное, что не вызывает сомнений: убийца не остановится, и смерть дизайнера – лишь первое звено в его безумном замысле.

Рейтинг и доп. информация:


Видео: 1024x576, (16:9), 25 fps, AVC MPEG-4 (x264), High@L4.1 ~ 1600 kbps , 0.109 bit/pixel
Аудио: 48 kHz, AC3, 2/0 (L,R) ch, ~192 kbps
MediaInfo
Общее
Уникальный идентификатор : 230060079825564378531196796931283832073 (0xAD13F5AD38FCC972A381206336BB4D09)
Полное имя : C:\Синичка.S03.(2020).WEB-DLRip.(AVC).Files-x\01.Синичка.S03.(2020).WEB-DLRip.(AVC).by.Серый1779.Files-x.mkv
Формат : Matroska
Версия формата : Version 2
Размер файла : 648 Мбайт
Продолжительность : 50 м. 33 с.
Общий поток : 1 793 Кбит/сек
Дата кодирования : UTC 2020-05-23 16:16:31
Программа кодирования : mkvmerge v7.8.0 ('River Man') 32bit built on Apr 3 2015 12:11:22
Библиотека кодирования : libebml v1.3.1 + libmatroska v1.4.2

Видео
Идентификатор : 1
Формат : AVC
Формат/Информация : Advanced Video Codec
Профиль формата : High@L4.1
Настройки формата : CABAC / 9 Ref Frames
Параметр CABAC формата : Да
Параметр RefFrames формата : 9 кадров
Идентификатор кодека : V_MPEG4/ISO/AVC
Продолжительность : 50 м. 33 с.
Битрейт : 1 600 Кбит/сек
Ширина : 1 024 пикселя
Высота : 576 пикселей
Соотношение сторон : 16:9
Режим частоты кадров : Постоянный
Частота кадров : 25,000 кадров/сек
Цветовое пространство : YUV
Субдискретизация насыщенности : 4:2:0
Битовая глубина : 8 бит
Тип развёртки : Прогрессивная
Бит/(Пиксели*Кадры) : 0.109
Размер потока : 566 Мбайт (87%)
Библиотека кодирования : x264 core 146 r2538 121396c
Настройки программы : cabac=1 / ref=9 / deblock=1:-2:-1 / analyse=0x3:0x133 / me=umh / subme=9 / psy=1 / psy_rd=1.00:0.15 / mixed_ref=1 / me_range=32 / chroma_me=1 / trellis=2 / 8x8dct=1 / cqm=0 / deadzone=21,11 / fast_pskip=0 / chroma_qp_offset=-3 / threads=18 / lookahead_threads=3 / sliced_threads=0 / nr=0 / decimate=1 / interlaced=0 / bluray_compat=0 / constrained_intra=0 / bframes=9 / b_pyramid=2 / b_adapt=2 / b_bias=0 / direct=1 / weightb=1 / open_gop=0 / weightp=2 / keyint=250 / keyint_min=25 / scenecut=40 / intra_refresh=0 / rc=2pass / mbtree=0 / bitrate=1600 / ratetol=1.0 / qcomp=0.60 / qpmin=0 / qpmax=69 / qpstep=4 / cplxblur=20.0 / qblur=0.5 / ip_ratio=1.40 / pb_ratio=1.30 / aq=2:1.00
Default : Да
Forced : Нет
Цветовой диапазон : Limited
Основные цвета : BT.709
Характеристики трансфера : BT.709
Коэффициенты матрицы : BT.709
Duration_Source : General_Duration

Аудио
Идентификатор : 2
Формат : AC-3
Формат/Информация : Audio Coding 3
Коммерческое название : Dolby Digital
Идентификатор кодека : A_AC3
Продолжительность : 50 м. 33 с.
Вид битрейта : Постоянный
Битрейт : 192 Кбит/сек
Каналы : 2 канала
Channel layout : L R
Частота : 48,0 КГц
Частота кадров : 31,250 кадров/сек (1536 SPF)
Метод сжатия : С потерями
Размер потока : 69,4 Мбайт (11%)
Service kind : Complete Main
Default : Да
Forced : Нет
Duration_Source : General_Duration

Информация о торренте:
Размер содержимого: 2.4 GB
Скачан: 257 раз
Статус: Проверен
Зарегистрирован на трекере: 2020-05-24 08:26
Скачать торрент


Поддержи раздачу — поставь лайк:
BLIZNEC W
2020-05-23 19:52
Интересного и приятного просмотра!!!

Мои раздачи
Писать комментарии на нашем торрент-трекере могут только зарегистрированные пользователи.
Зарегистрируйтесь или авторизируйтесь на сайте.