»
»

Скачать сериал Тонкая грань (1-8 серии из 8) (Тимур Кабулов) / [2011, мелодрама, детектив, SATRip-AVC] - торрент

Торрент можно скачать, нажав синюю кнопку ниже. Сериал доступен на нашем торрент-трекере бесплатно, без регистрации и смс.

Статистика раздачи
0 [ 0 b/s ] ↑ 5.4 GB ↓ 0 [ 0 b/s ]
Автор Сообщение
BLIZNEC W
2020-05-23 18:19
Тонкая грань (1-8 серии из 8)
Тонкая грань Перевод: Не требуется, cубтитры: отсутствуют
Формат: SATRip-AVC, MKV, H.264, AC3
Страна: Россия
Режиссер: Тимур Кабулов
Жанр: мелодрама, детектив
Всего серий: 8
Продолжительность: 8 x ~ 00:45:00
Год выпуска: 2011

В ролях: Илья Древнов, Елена Панова, Павел Сборщиков, Вадим Андреев, Анатолий Гущин, Роман Ладнев, Илья Барабанов, Владислав Резник, Егор Катков, Дарья Калмыкова, Александр Кудинов, Сергей Греков, Галина Анисимова (II), Сергей Неудачин, Юрий Назаров, Тамара Спиричёва, Галина Стаханова, Александра Грин, Елена Торшина, Михаил Богдасаров, Евгения Осипова, Антон Батырев, Валерий Кудашкин, Нина Ракова, Олег Ребров, Павел Буйнаков

Описание: В районной прокуратуре новый сотрудник – Павел Кругляков. Коллеги воспринимают нового назначенца в штыки, однако новичок оказывается совсем не прост. В первую же неделю он, играючи, раскрывает два безнадежных дела, не реагируя на подколки, оставаясь дружелюбным и сдержанным. Павла привлекает красивая, умная и к тому же одинокая коллега – Марина Синицына, которая в свою очередь тоже обращает внимание на нового сослуживца. Работая рядом с Павлом, Марина не перестает удивляться его уму, таланту, доброте и человечности. Ее удивление перерастает в интерес, а потом возникает чувство, которое становится взаимным. Но это не радует только одного человека – их коллегу Мартынова, который давно ухаживал за Синицыной. Образуется любовный треугольник, и Мартынов решается на подлость...

Рейтинг и доп. информация:


Видео: 720x572@1024х572, (16:9), 25 fps, AVC MPEG-4 (x264), High@L4.1 ~ 2000 kbps , 0.194 bit/pixel
Аудио: 48 kHz, АС3, 2/0 (L,R), ~192.00 kbps avg
MediaInfo
Общее
Уникальный идентификатор : 202182564199738417949802425078400521412 (0x981AF209D50977DA8CA8F8DA1F4194C4)
Полное имя : C:\Тонкая грань\Тонкая грань (1 сер.).mkv
Формат : Matroska
Версия формата : Version 2
Размер файла : 697 Мбайт
Продолжительность : 44 м. 25 с.
Общий поток : 2 194 Кбит/сек
Дата кодирования : UTC 2020-05-18 10:43:40
Программа кодирования : mkvmerge v7.8.0 ('River Man') 32bit built on Apr 3 2015 12:11:22
Библиотека кодирования : libebml v1.3.1 + libmatroska v1.4.2

Видео
Идентификатор : 1
Формат : AVC
Формат/Информация : Advanced Video Codec
Профиль формата : High@L4.1
Настройки формата : CABAC / 9 Ref Frames
Параметр CABAC формата : Да
Параметр RefFrames формата : 9 кадров
Идентификатор кодека : V_MPEG4/ISO/AVC
Продолжительность : 44 м. 25 с.
Битрейт : 2 000 Кбит/сек
Ширина : 720 пикселей
Высота : 572 пикселя
Соотношение сторон : 16:9
Режим частоты кадров : Постоянный
Частота кадров : 25,000 кадров/сек
Цветовое пространство : YUV
Субдискретизация насыщенности : 4:2:0
Битовая глубина : 8 бит
Тип развёртки : Прогрессивная
Бит/(Пиксели*Кадры) : 0.194
Размер потока : 622 Мбайт (89%)
Библиотека кодирования : x264 core 157 r2935 545de2f
Настройки программы : cabac=1 / ref=9 / deblock=1:-1:-1 / analyse=0x3:0x133 / me=umh / subme=10 / psy=1 / psy_rd=1.00:0.15 / mixed_ref=1 / me_range=24 / chroma_me=1 / trellis=2 / 8x8dct=1 / cqm=0 / deadzone=21,11 / fast_pskip=1 / chroma_qp_offset=-3 / threads=9 / lookahead_threads=1 / sliced_threads=0 / nr=0 / decimate=1 / interlaced=0 / bluray_compat=0 / constrained_intra=0 / bframes=9 / b_pyramid=2 / b_adapt=2 / b_bias=0 / direct=3 / weightb=1 / open_gop=0 / weightp=2 / keyint=250 / keyint_min=25 / scenecut=40 / intra_refresh=0 / rc_lookahead=60 / rc=2pass / mbtree=1 / bitrate=2000 / ratetol=1.0 / qcomp=0.60 / qpmin=0 / qpmax=69 / qpstep=4 / cplxblur=20.0 / qblur=0.5 / ip_ratio=1.40 / aq=1:1.00
Default : Да
Forced : Нет
Duration_Source : General_Duration

Аудио
Идентификатор : 2
Формат : AC-3
Формат/Информация : Audio Coding 3
Коммерческое название : Dolby Digital
Идентификатор кодека : A_AC3
Продолжительность : 44 м. 25 с.
Вид битрейта : Постоянный
Битрейт : 192 Кбит/сек
Каналы : 2 канала
Channel layout : L R
Частота : 48,0 КГц
Частота кадров : 31,250 кадров/сек (1536 SPF)
Метод сжатия : С потерями
Размер потока : 61,0 Мбайт (9%)
Service kind : Complete Main
Default : Да
Forced : Нет
Duration_Source : General_Duration

Информация о торренте:
Размер содержимого: 5.4 GB
Скачан: 399 раз
Статус: Проверен
Зарегистрирован на трекере: 2020-05-23 17:19
Скачать торрент


Поддержи раздачу — поставь лайк:
BLIZNEC W
2020-05-23 17:19
Интересного и приятного просмотра!!!

Мои раздачи
Писать комментарии на нашем торрент-трекере могут только зарегистрированные пользователи.
Зарегистрируйтесь или авторизируйтесь на сайте.