»
»

Скачать фильм Спутник (Егор Абраменко) / [2020, фантастика, триллер, драма, WEB-DLRip-AVC] - торрент

Скачать торрент фильм можно, нажав на синюю кнопку ниже. Фильм доступен на нашем торрент-трекере бесплатно, без регистрации и смс.

Статистика раздачи
0 [ 0 b/s ] ↑ 1.5 GB ↓ 0 [ 0 b/s ]
Автор Сообщение
BLIZNEC W
2020-04-24 10:35
Спутник
Спутник Формат: WEB-DLRip-AVC, MKV, H.264, AC3
Режиссер: Егор Абраменко
Жанр: фантастика, триллер, драма
Продолжительность: 01:53:44
Год выпуска: 2020

В ролях: Оксана Акиньшина, Пётр Фёдоров, Фёдор Бондарчук, Антон Васильев (III), Виталина Корниенко, Наталья Швец, Алексей Демидов, Александр Марушев, Альбрехт Цандер, Александр Шам, Анна Назарова (II), Павел Устинов, Андрей Дерюгин, Ирина Бякова, Григорий Маликбекян, Андрей Шворнев, Олег Махин, Андрей Смиреннов, Руслан Джайбеков-Медведев, Николай Стародубцев, Василий Зотов, Виталий Кондрашов

Описание: СССР, 1983 год. Советский космонавт-герой Владимир Вешняков привозит на землю инопланетное существо... в собственном теле. В секретной лаборатории закрытого режимного города нейрофизиолог Татьяна Климова пытается спасти космонавта от чудовища, обнаруживая, что испытывает к своему пациенту куда больше, чем профессиональный интерес.

Рейтинг и доп. информация:


Видео: 1024x432, (2,40:1), 24 fps, AVC MPEG-4 (x264), High@L4.1 ~ 1450 kbps , 0.137 bit/pixel
Аудио: 48 kHz, AC3 Dolby Digital, 3/2 (L,C,R,l,r) + LFE ch, ~ 384 kbps avg iTunes
MediaInfo
General
Unique ID : 212952796619627162393252620895886564137 (0xA035377E923F847280FDF675EEECDB29)
Complete name : F:SPUTNIK.(2020).WEB-DLRip.(AVC).by.Серый1779.Files-x.mkv
Format : Matroska
Format version : Version 2
File size : 1.46 GiB
Duration : 1 h 53 min
Overall bit rate : 1 836 kb/s
Encoded date : UTC 2020-05-24 22:45:34
Writing application : mkvmerge v7.8.0 ('River Man') 32bit built on Apr 3 2015 12:11:22
Writing library : libebml v1.3.1 + libmatroska v1.4.2

Video
ID : 1
Format : AVC
Format/Info : Advanced Video Codec
Format profile : High@L4.1
Format settings : CABAC / 10 Ref Frames
Format settings, CABAC : Yes
Format settings, RefFrames : 10 frames
Codec ID : V_MPEG4/ISO/AVC
Duration : 1 h 53 min
Bit rate : 1 450 kb/s
Width : 1 024 pixels
Height : 432 pixels
Display aspect ratio : 2.40:1
Frame rate mode : Constant
Frame rate : 24.000 FPS
Color space : YUV
Chroma subsampling : 4:2:0
Bit depth : 8 bits
Scan type : Progressive
Bits/(Pixel*Frame) : 0.137
Stream size : 1.12 GiB (77%)
Writing library : x264 core 146 r2538 121396c
Encoding settings : cabac=1 / ref=10 / deblock=1:-2:-1 / analyse=0x3:0x133 / me=umh / subme=11 / psy=1 / psy_rd=1.00:0.08 / mixed_ref=1 / me_range=32 / chroma_me=1 / trellis=2 / 8x8dct=1 / cqm=0 / deadzone=21,11 / fast_pskip=0 / chroma_qp_offset=-3 / threads=18 / lookahead_threads=3 / sliced_threads=0 / nr=0 / decimate=1 / interlaced=0 / bluray_compat=0 / constrained_intra=0 / bframes=11 / b_pyramid=2 / b_adapt=2 / b_bias=0 / direct=1 / weightb=1 / open_gop=0 / weightp=2 / keyint=250 / keyint_min=23 / scenecut=40 / intra_refresh=0 / rc=2pass / mbtree=0 / bitrate=1450 / ratetol=1.0 / qcomp=0.60 / qpmin=0 / qpmax=69 / qpstep=4 / cplxblur=20.0 / qblur=0.5 / ip_ratio=1.40 / pb_ratio=1.30 / aq=2:1.00
Default : Yes
Forced : No
Color range : Limited
Color primaries : BT.709
Transfer characteristics : BT.709
Matrix coefficients : BT.709

Audio
ID : 2
Format : AC-3
Format/Info : Audio Coding 3
Format settings, Endianness : Big
Codec ID : A_AC3
Duration : 1 h 53 min
Bit rate mode : Constant
Bit rate : 384 kb/s
Channel(s) : 6 channels
Channel positions : Front: L C R, Side: L R, LFE
Sampling rate : 48.0 kHz
Frame rate : 31.250 FPS (1536 SPF)
Bit depth : 16 bits
Compression mode : Lossy
Stream size : 312 MiB (21%)
Service kind : Complete Main
Default : Yes
Forced : No

Информация о торренте:
Размер содержимого: 1.5 GB
Скачан: 318 раз
Статус: Проверен
Зарегистрирован на трекере: 2020-05-25 11:36
Скачать торрент


Поддержи раздачу — поставь лайк:
BLIZNEC W
2020-04-24 09:35
Интересного и приятного просмотра!!!

Мои раздачи
vorond78
2020-04-25 21:36
Задумка хорошая.До середины фильм смотреть можно,но ближе к развязке намудрили.Одни страдания и финал тухлый
corvax666
2020-04-26 08:38
Двоякое впечатление. На мой взгляд,атмосфера СССР передана правильно. И,эти розовые сопли в финале реально взбесили,ну вот зачем это нужно!? Финал все испортил.
Ares73rus
2020-04-28 07:55
corvax666 написал(а):
Двоякое впечатление. На мой взгляд,атмосфера СССР передана правильно. И,эти розовые сопли в финале реально взбесили,ну вот зачем это нужно!? Финал все испортил.

я и не понял, что это время СССР.
gabi-75
2020-05-09 13:13
Действительно очень не плохо сделан , доволно таки интересный сюжет , но финал-полная фигня.
liudochka
2020-05-17 06:57
А мне понравился!!!!!!!!!!!
BLIZNEC W
2020-05-25 11:37
Замена рипа на iTunes
Писать комментарии на нашем торрент-трекере могут только зарегистрированные пользователи.
Зарегистрируйтесь или авторизируйтесь на сайте.