»
»

Скачать фильм Мир насекомых / Insect World (Фил Коулз) [2017, документальный, природа, фауна, флора, HDTVRip 720p] VO - торрент

Бесплатные торренты всегда на нашем сайте и в хорошем качестве! Фильм доступен на нашем торрент-трекере бесплатно, без регистрации и смс.

Статистика раздачи
0 [ 0 b/s ] ↑ 1.5 GB ↓ 0 [ 0 b/s ]
Автор Сообщение
ARI71
2020-04-24 09:55
Мир насекомых / Insect World
Мир насекомых / Insect World Перевод: Профессиональный (одноголосый), cубтитры: отсутствуют
Формат: HDTVRip 720p, MKV, H.264, AC3
Страна: Австрия, Doclights for ZDF Enterprises
Режиссер: Фил Коулз
Жанр: документальный, природа, фауна, флора
Продолжительность: 00:49:56
Год выпуска: 2017

Описание: Они могут быть довольно раздражающими, жужжать, кусаться и быть жуткими - но без наших беспозвоночных соседей у нас будут серьезные проблемы. Они очищают планету для нас, опыляют растения, от которых мы зависим, и обеспечивают основу пищевой цепи, поддерживающей всю жизнь, включая нас самих. С миллионами лет тонкой настройки они представляют собой миниатюрные чудеса, без которых мир просто не может жить...

Видео: 1280x720 (16:9), 25 fps, AVC (Н.264), High@L4,1, 4000 kbps avg, 0.174 bit/pixel
Аудио: 48 kHz, AC3, 2 ch, ~192.00 kbps avg

Рип от: kyba62
MediaInfo
Код:
Complete name : Мир насекомых_720p.mkv
Format : Matroska
Format version : Version 4
File size : 1.46 GiB
Duration : 49 min 56 s
Overall bit rate : 4 194 kb/s
Encoded date : UTC 2020-04-19 16:57:03
Writing application : mkvmerge v6.6.0 ('The Edge Of The In Between') built on Dec 1 2013 17:55:00
Writing library : libebml v1.3.0 + libmatroska v1.4.1

Video
ID : 1
Format : AVC
Format/Info : Advanced Video Codec
Format profile : High@L4.1
Format settings : CABAC / 8 Ref Frames
Format settings, CABAC : Yes
Format settings, Reference : 8 frames
Codec ID : V_MPEG4/ISO/AVC
Duration : 49 min 56 s
Bit rate : 4 000 kb/s
Width : 1 280 pixels
Height : 720 pixels
Display aspect ratio : 16:9
Frame rate mode : Constant
Frame rate : 25.000 FPS
Color space : YUV
Chroma subsampling : 4:2:0
Bit depth : 8 bits
Scan type : Progressive
Bits/(Pixel*Frame) : 0.174
Stream size : 1.37 GiB (93%)
Writing library : x264 core 159 r2991 1771b55
Encoding settings : cabac=1 / ref=8 / deblock=1:-3:-3 / analyse=0x3:0x133 / me=umh / subme=9 / psy=1 / psy_rd=1.00:0.00 / mixed_ref=1 / me_range=32 / chroma_me=1 / trellis=2 / 8x8dct=1 / cqm=0 / deadzone=21,11 / fast_pskip=1 / chroma_qp_offset=-2 / threads=12 / lookahead_threads=2 / sliced_threads=0 / nr=0 / decimate=0 / interlaced=0 / bluray_compat=0 / constrained_intra=0 / bframes=9 / b_pyramid=2 / b_adapt=2 / b_bias=0 / direct=3 / weightb=1 / open_gop=0 / weightp=2 / keyint=250 / keyint_min=25 / scenecut=40 / intra_refresh=0 / rc_lookahead=50 / rc=2pass / mbtree=1 / bitrate=4000 / ratetol=1.0 / qcomp=0.60 / qpmin=0 / qpmax=69 / qpstep=4 / cplxblur=20.0 / qblur=0.5 / ip_ratio=1.40 / aq=1:1.00
Language : English
Default : Yes
Forced : No

Audio
ID : 2
Format : AC-3
Format/Info : Audio Coding 3
Commercial name : Dolby Digital
Codec ID : A_AC3
Duration : 49 min 56 s
Bit rate mode : Constant
Bit rate : 192 kb/s
Channel(s) : 2 channels
Channel layout : L R
Sampling rate : 48.0 kHz
Frame rate : 31.250 FPS (1536 SPF)
Bit depth : 16 bits
Compression mode : Lossy
Stream size : 68.6 MiB (5%)
Language : Russian
Service kind : Complete Main
Default : Yes
Forced : No

Информация о торренте:
Размер содержимого: 1.5 GB
Скачан: 146 раз
Статус: Проверен
Зарегистрирован на трекере: 2020-04-24 08:55
Скачать торрент


Поддержи раздачу — поставь лайк:
Писать комментарии на нашем торрент-трекере могут только зарегистрированные пользователи.
Зарегистрируйтесь или авторизируйтесь на сайте.