»
»

Скачать фильм Токийский гуль / Tokyo Ghoul / Tokyo guru (Кэнтаро Хагивара) [2017, ужасы, фантастика, боевик, триллер, HDRip-AVC] MVO - торрент

Нажмите на синюю кнопку ниже, чтобы скачать фильм бесплатно через торрент. Фильм доступен на нашем торрент-трекере бесплатно, без регистрации и смс.

Статистика раздачи
0 [ 0 b/s ] ↑ 1.5 GB ↓ 0 [ 0 b/s ]
Автор Сообщение
monstryu
2020-04-24 08:33
Токийский гуль / Tokyo Ghoul / Tokyo guru
Токийский гуль / Tokyo Ghoul / Tokyo guru Перевод: Профессиональный (многоголосый, закадровый) HDRezka Studio, cубтитры: отсутствуют
Формат: HDRip-AVC, MKV, H.264, AC3
Страна: Япония
Режиссер: Кэнтаро Хагивара
Жанр: ужасы, фантастика, боевик, триллер
Продолжительность: 01:59:56
Год выпуска: 2017
В ролях: Масатака Кубота, Фумика Симидзу, Нобуюки Судзуки, Хиёри Сакурада, Ё Оидзуми, Ю Аои, Кунио Мураи, Каи Огасавара, Сюнъя Сираиси, Сёко Аида

Описание: Японский студент Кэн Канэки был обычным человеком. Но однажды все изменилось. Это произошло после того как на него напал ужасный монстр - гуль. Кэну удалось избежать смерти лишь благодаря счастливой случайности, в результате которой гуль погибает. Но они оба попадают в больницу, и студенту пересаживают органы чудовища. Вскоре Кэн начинает перевоплощаться в того, кого раньше сам очень боялся. Отныне ему придется научиться жить в новом обличье...



Видео: 1024x432 (2.40:1), 23.976 fps, AVC MPEG4 (x264), High@L4.1, ~1553 kbps avg, 0.146 bit/pixel
Аудио: 48 kHz, AC3 Dolby Digital, 2 (L,R) ch, ~192.00 kbps avg
MI
General
Unique ID : 242487883578169704859102277225940671159 (0xB66D77B5837DAD3F27F64813165A5AB7)
Complete name : C:\Users\123\Desktop\Tokyo.Ghoul.2017.HDRip-AVC_[tfile.ru].mkv
Format : Matroska
Format version : Version 4 / Version 2
File size : 1.46 GiB
Duration : 1h 59mn
Overall bit rate mode : Constant
Overall bit rate : 1 745 Kbps
Movie name : Ziqiang @ WiKi
Encoded date : UTC 2020-04-23 11:31:56
Writing application : Lavf56.36.100
Writing library : Lavf56.36.100

Video
ID : 2
Format : AVC
Format/Info : Advanced Video Codec
Format profile : High@L4.1
Format settings, CABAC : Yes
Format settings, ReFrames : 2 frames
Format settings, GOP : M=1, N=25
Codec ID : V_MPEG4/ISO/AVC
Duration : 1h 59mn
Bit rate mode : Constant
Bit rate : 1 553 Kbps
Width : 1 024 pixels
Height : 432 pixels
Display aspect ratio : 2.40:1
Frame rate mode : Constant
Frame rate : 23.976 fps
Color space : YUV
Chroma subsampling : 4:2:0
Bit depth : 8 bits
Scan type : Progressive
Bits/(Pixel*Frame) : 0.146
Stream size : 1.27 GiB (87%)
Language : Japanese
Default : Yes
Forced : No
DURATION : 01:59:55.605000000
NUMBER_OF_FRAMES : 172522
NUMBER_OF_BYTES : 8989443767
_STATISTICS_WRITING_APP : mkvmerge v7.1.0 ('Good Love') 64bit built on Jul 27 2014 13:06:55
_STATISTICS_WRITING_DATE_UTC : 2020-04-23 11:31:56
_STATISTICS_TAGS : BPS DURATION NUMBER_OF_FRAMES NUMBER_OF_BYTES

Audio
ID : 1
Format : AC-3
Format/Info : Audio Coding 3
Mode extension : CM (complete main)
Format settings, Endianness : Big
Codec ID : A_AC3
Duration : 1h 59mn
Bit rate mode : Constant
Bit rate : 192 Kbps
Channel(s) : 2 channels
Channel positions : Front: L R
Sampling rate : 48.0 KHz
Bit depth : 32 bits
Compression mode : Lossy
Stream size : 165 MiB (11%)
Title : MVO | HDRezka Studio
Language : Russian
Default : Yes
Forced : No
DURATION : 01:59:55.680000000
NUMBER_OF_FRAMES : 224865
NUMBER_OF_BYTES : 172696320
_STATISTICS_WRITING_APP : mkvmerge v7.1.0 ('Good Love') 64bit built on Jul 27 2014 13:06:55
_STATISTICS_WRITING_DATE_UTC : 2020-04-23 11:31:56
_STATISTICS_TAGS : BPS DURATION NUMBER_OF_FRAMES NUMBER_OF_BYTES

Информация о торренте:
Размер содержимого: 1.5 GB
Скачан: 257 раз
Статус: Проверен
Зарегистрирован на трекере: 2020-04-24 07:33
Скачать торрент


Поддержи раздачу — поставь лайк:

Писать комментарии на нашем торрент-трекере могут только зарегистрированные пользователи.
Зарегистрируйтесь или авторизируйтесь на сайте.