»
»

Скачать сериал Ищейка (4 сезон 1-16 серии из 16) (Андрей Головков) / [2020, криминал, детектив, WEB-DL 720p] - торрент

Скачать бесплатный торрент сериал. Сериал доступен на нашем торрент-трекере бесплатно, без регистрации и смс.

Статистика раздачи
0 [ 0 b/s ] ↑ 15.7 GB ↓ 0 [ 0 b/s ]
Автор Сообщение
BLIZNEC W
2020-04-10 16:44
Ищейка (4 сезон 1-16 серии из 16)
Ищейка Перевод: Не требуется, cубтитры: отсутствуют
Формат: WEB-DL 720p, MKV, H.264, AC3
Страна: Россия
Режиссер: Андрей Головков
Жанр: криминал, детектив
Всего серий: 16
Продолжительность: 16 х ~ 00:50:00
Год выпуска: 2020

В ролях: Анна Банщикова, Александр Макогон, Дмитрий Миллер, Владислав Павлов, Эдуард Чекмазов, Владимир Николенко, Анатолий Гущин, Денис Бургазлиев, Ирина Пулина, Юлия Бедарева, Игорь Филиппов, Дмитрий Мазуров, Мария Берсенева, Анатолий Кот, Алёна Хмельницкая, Ксения Лаврова-Глинка, Нелли Неведина, Александр Воеводин, Мария Шаханова, Александр Песков

Описание: Прошло больше двух лет с тех пор, как подполковник Александра Кушнир отошла от дел и с головой погрузилась в семейные хлопоты. Теперь Александра - счастливая мать маленького Миши, жена Бориса. И всё же, по-прежнему до безумия любя семью, Александра всё чаще не находит себе места без работы. Ежедневно распутывать самые сложные дела и одновременно ухаживать за ребёнком – непосильная задача даже для опытного следователя. Но Александра готова рискнуть. Она ещё не подозревает, что кое-кто из её прошлого теперь будет подстерегать её на каждом шагу…

Рейтинг и доп. информация:


Видео: 1280x720, (16:9), 25 fps, AVC MPEG-4 (x264), High@L4 ~ 2500 kbps , 0.109 bit/pixel
Аудио: 48 kHz, АС3, 2/0 (L,R), ~192.00 kbps avg
Доп. инфо
Реклама, любого вида, отсутствует.
MediaInfo
Общее
Уникальный идентификатор : 220693892050319564516264687181285031389 (0xA60818F75A5F1A26922EFDAC9627FDDD)
Полное имя : C:\Isheika.S04.2020.WEB-DL.(720p).ExKinoRay\Isheika.S04.E01.2020.WEB-DL.(720p).ExKinoRay.mkv
Формат : Matroska
Версия формата : Version 2
Размер файла : 1 011 Мбайт
Продолжительность : 51 м. 21 с.
Общий поток : 2 752 Кбит/сек
Дата кодирования : UTC 2020-04-10 11:23:36
Программа кодирования : mkvmerge v5.8.0 ('No Sleep / Pillow') built on Sep 2 2012 15:37:04
Библиотека кодирования : libebml v1.2.3 + libmatroska v1.3.0

Видео
Идентификатор : 1
Формат : AVC
Формат/Информация : Advanced Video Codec
Профиль формата : High@L4
Настройки формата : CABAC / 4 Ref Frames
Параметр CABAC формата : Да
Параметр RefFrames формата : 4 кадра
Идентификатор кодека : V_MPEG4/ISO/AVC
Продолжительность : 51 м. 21 с.
Битрейт : 2 500 Кбит/сек
Ширина : 1 280 пикселей
Высота : 720 пикселей
Соотношение сторон : 16:9
Режим частоты кадров : Постоянный
Частота кадров : 25,000 кадров/сек
Цветовое пространство : YUV
Субдискретизация насыщенности : 4:2:0
Битовая глубина : 8 бит
Тип развёртки : Прогрессивная
Бит/(Пиксели*Кадры) : 0.109
Размер потока : 920 Мбайт (91%)
Язык : Russian
Default : Да
Forced : Нет
Duration_Source : General_Duration

Аудио
Идентификатор : 2
Формат : AC-3
Формат/Информация : Audio Coding 3
Коммерческое название : Dolby Digital
Идентификатор кодека : A_AC3
Продолжительность : 51 м. 21 с.
Вид битрейта : Постоянный
Битрейт : 192 Кбит/сек
Каналы : 2 канала
Channel layout : L R
Частота : 48,0 КГц
Частота кадров : 31,250 кадров/сек (1536 SPF)
Метод сжатия : С потерями
Размер потока : 70,5 Мбайт (7%)
Язык : Russian
Service kind : Complete Main
Default : Да
Forced : Нет
Duration_Source : General_Duration

Информация о торренте:
Размер содержимого: 15.7 GB
Скачан: 214 раз
Статус: Проверен
Зарегистрирован на трекере: 2020-04-24 09:23
Скачать торрент


Поддержи раздачу — поставь лайк:
BLIZNEC W
2020-04-10 15:44
Интересного и приятного просмотра!!!

Мои раздачи
Entonio
2020-04-17 22:57
Мне почему то не работает окно "Найти по названию" Может кто знает? Спасибо.
paradiz24
2020-04-22 13:18
Спасибо .
Писать комментарии на нашем торрент-трекере могут только зарегистрированные пользователи.
Зарегистрируйтесь или авторизируйтесь на сайте.