»
»

Скачать сериал Ищейка (4 сезон 1-16 серии из 16) (Андрей Головков) / [2020, криминал, детектив, HDTVRip-AVC] - торрент

Скачать сериал бесплатно через торрент. Сериал доступен на нашем торрент-трекере бесплатно, без регистрации и смс.

Статистика раздачи
0 [ 0 b/s ] ↑ 12.3 GB ↓ 0 [ 0 b/s ]
Автор Сообщение
BLIZNEC W
2020-04-07 15:42
Ищейка (4 сезон 1-16 серии из 16)
Ищейка Перевод: Не требуется, cубтитры: отсутствуют
Формат: HDTVRip-AVC, MKV, H.264, AC3
Страна: Россия
Режиссер: Андрей Головков
Жанр: криминал, детектив
Всего серий: 16
Продолжительность: 16 х ~ 00:50:00
Год выпуска: 2020

В ролях: Анна Банщикова, Александр Макогон, Дмитрий Миллер, Владислав Павлов, Эдуард Чекмазов, Владимир Николенко, Анатолий Гущин, Денис Бургазлиев, Ирина Пулина, Юлия Бедарева, Игорь Филиппов, Дмитрий Мазуров, Мария Берсенева, Анатолий Кот, Алёна Хмельницкая, Ксения Лаврова-Глинка, Нелли Неведина, Александр Воеводин, Мария Шаханова, Александр Песков

Описание: Прошло больше двух лет с тех пор, как подполковник Александра Кушнир отошла от дел и с головой погрузилась в семейные хлопоты. Теперь Александра - счастливая мать маленького Миши, жена Бориса. И всё же, по-прежнему до безумия любя семью, Александра всё чаще не находит себе места без работы. Ежедневно распутывать самые сложные дела и одновременно ухаживать за ребёнком – непосильная задача даже для опытного следователя. Но Александра готова рискнуть. Она ещё не подозревает, что кое-кто из её прошлого теперь будет подстерегать её на каждом шагу…

Рейтинг и доп. информация:


Видео: 1024x576, (16:9), 25 fps, AVC MPEG-4 (x264), High@L4.1 ~ 2000 kbps , 0.136 bit/pixel
Аудио: 48 kHz, АС3, 2/0 (L,R), ~192.00 kbps avg
MediaInfo
Общее
Уникальный идентификатор : 236805018816104483066982244797648165651 (0xB226FCD811008CFB87A23F6C0DF35B13)
Полное имя : C:\Ищейка.S04.(2020).HDTVRip.(AVC).Files-x\01.Ищейка.s04.(2020).HDTVRip.(AVC).by.Серый1779.Files-x.mkv
Формат : Matroska
Версия формата : Version 2
Размер файла : 795 Мбайт
Продолжительность : 50 м. 40 с.
Общий поток : 2 194 Кбит/сек
Дата кодирования : UTC 2020-04-07 08:30:20
Программа кодирования : mkvmerge v7.8.0 ('River Man') 32bit built on Apr 3 2015 12:11:22
Библиотека кодирования : libebml v1.3.1 + libmatroska v1.4.2

Видео
Идентификатор : 1
Формат : AVC
Формат/Информация : Advanced Video Codec
Профиль формата : High@L4.1
Настройки формата : CABAC / 9 Ref Frames
Параметр CABAC формата : Да
Параметр RefFrames формата : 9 кадров
Идентификатор кодека : V_MPEG4/ISO/AVC
Продолжительность : 50 м. 40 с.
Битрейт : 2 000 Кбит/сек
Ширина : 1 024 пикселя
Высота : 576 пикселей
Соотношение сторон : 16:9
Режим частоты кадров : Постоянный
Частота кадров : 25,000 кадров/сек
Цветовое пространство : YUV
Субдискретизация насыщенности : 4:2:0
Битовая глубина : 8 бит
Тип развёртки : Прогрессивная
Бит/(Пиксели*Кадры) : 0.136
Размер потока : 710 Мбайт (89%)
Библиотека кодирования : x264 core 146 r2538 121396c
Настройки программы : cabac=1 / ref=9 / deblock=1:-2:-1 / analyse=0x3:0x133 / me=umh / subme=9 / psy=1 / psy_rd=1.00:0.15 / mixed_ref=1 / me_range=32 / chroma_me=1 / trellis=2 / 8x8dct=1 / cqm=0 / deadzone=21,11 / fast_pskip=0 / chroma_qp_offset=-3 / threads=18 / lookahead_threads=3 / sliced_threads=0 / nr=0 / decimate=1 / interlaced=0 / bluray_compat=0 / constrained_intra=0 / bframes=9 / b_pyramid=2 / b_adapt=2 / b_bias=0 / direct=1 / weightb=1 / open_gop=0 / weightp=2 / keyint=250 / keyint_min=25 / scenecut=40 / intra_refresh=0 / rc=2pass / mbtree=0 / bitrate=2000 / ratetol=1.0 / qcomp=0.60 / qpmin=0 / qpmax=69 / qpstep=4 / cplxblur=20.0 / qblur=0.5 / ip_ratio=1.40 / pb_ratio=1.30 / aq=2:1.00
Default : Да
Forced : Нет
Цветовой диапазон : Limited
Основные цвета : BT.709
Характеристики трансфера : BT.709
Коэффициенты матрицы : BT.709
Duration_Source : General_Duration

Аудио
Идентификатор : 2
Формат : AC-3
Формат/Информация : Audio Coding 3
Коммерческое название : Dolby Digital
Идентификатор кодека : A_AC3
Продолжительность : 50 м. 40 с.
Вид битрейта : Постоянный
Битрейт : 192 Кбит/сек
Каналы : 2 канала
Channel layout : L R
Частота : 48,0 КГц
Частота кадров : 31,250 кадров/сек (1536 SPF)
Метод сжатия : С потерями
Размер потока : 69,6 Мбайт (9%)
Service kind : Complete Main
Default : Да
Forced : Нет
Duration_Source : General_Duration

Информация о торренте:
Размер содержимого: 12.3 GB
Скачан: 139 раз
Статус: Проверен
Зарегистрирован на трекере: 2020-04-24 08:46
Скачать торрент


Поддержи раздачу — поставь лайк:
BLIZNEC W
2020-04-24 08:47
Интересного и приятного просмотра!!!

Мои раздачи
Писать комментарии на нашем торрент-трекере могут только зарегистрированные пользователи.
Зарегистрируйтесь или авторизируйтесь на сайте.