»
»

Скачать сериал Заступники (1 сезон 1-8 серии из 8) (Владимир Котт) / [2019, драма, экранизация, HDTVRip 720p] - торрент

Скачать сериал бесплатно через торрент. Сериал доступен на нашем торрент-трекере бесплатно, без регистрации и смс.

Статистика раздачи
0 [ 0 b/s ] ↑ 10.6 GB ↓ 0 [ 0 b/s ]
Автор Сообщение
BLIZNEC W
2020-03-23 21:06
Заступники (1 сезон 1-8 серии из 8)
Заступники Перевод: Не требуется, cубтитры: отсутствуют
Формат: HDTVRip 720p, MKV, H.264, AC3
Страна: Россия
Режиссер: Владимир Котт
Жанр: драма, экранизация
Всего серий: 8
Продолжительность: 8 х ~ 00:50:00
Год выпуска: 2019

В ролях: Мари Ворожи, Кирилл Гребенщиков, Никита Тарасов, Виктория Верберг, Анна Арланова, Евгений Морозов, Юрий Нифонтов, Максим Виторган, Алексей Войтюк, Екатерина Агеева, Иван Василевский (II), Ирина Громова (II), Николай Рябычин, Татьяна Мухина (III), Екатерина Волкова, Леонид Небонс, Ольга Озоллапиня, Александр Сирин, Николай Сирин, Денис Парамонов, Игорь Гордин, Мария Фомина, Дмитрий Муляр, Данил Можаев, Наталья Гриншпун, Иван Агапов, Илья Дель, Валентин Самохин, Татьяна Владимирова, Евгения Крегжде, Илья Исаев, Андрей Курганов, Аполлон Кублашвили, Наталья Ноздрина, Ольга Онищенко, Николай Кириченко, Лука Тархан-Моурави, Эрик Кения, Алеся Гузько, Алексей Поляков (II), Олег Евтеев, Дмитрий Кривочуров, Инна Сухорецкая, Валерий Иваков, Полина Лашкевич, Александра Велескевич, Вадим Норштейн, Даниил Вершинин, Владислав Ветров, Светлана Свибильская, Ксения Савицкая, Георгий Фетисов, Иван Мацкевич, Костя Капский, Юлианна Михневич, Георгий Малявский, Ольга Колокольцева, Татьяна Новик (II), Иосиф Лагидзе

Описание: Сериал снят по мотивам книги адвоката Дины Каминской «Записки адвоката» Сериал основан на реальных судебных процессах знаменитых советских адвокатов. 1966 год. Конец оттепели. Нина Метлицкая – молодой, амбициозный адвокат – берется за самые сложные дела, включая обвинения в диссидентстве. Девушке выпадает шанс перевестись из небольшой юридической консультации в дальнем Подмосковье в Филиал №1 – самое сильное адвокатское бюро Советского Союза. Теперь Нине предстоит доказать, что она оказалась на новом месте заслуженно. Среди подзащитных Метлицкой – вор в законе, цеховик-миллионер, меломан, обвиняемый в шпионаже, звезда кино, осужденная за убийство сожителя, диссиденты– вся история брежневского Союза. А также – один из двух подростков, несправедливо обвиненных в страшном преступлении.
«Каждый имеет право на справедливый суд»
Рейтинг и доп. информация:


Видео: 1280х720, (16:9), 25 fps, AVC MPEG-4 (x264), High@L4.1 ~ 3500 kbps , 0.152 bit/pixel
Аудио: 48 kHz, AC3, 3/2 (L,C,R,l,r) + LFE ch, ~192.00 kbps avg
MediaInfo
Общее
Уникальный идентификатор : 236901856473515823106444906914962064198 (0xB239A34F23C843618B10B4C8EF35C346)
Полное имя : D:Zastupniki.HDTVRip.(720p).GeneralFilm1.Zastupniki.HDTVRip.(720p).GeneralFilm.mkv
Формат : Matroska
Версия формата : Version 2
Размер файла : 1,29 Гбайт
Продолжительность : 50 м.
Общий поток : 3694 Кбит/сек
Дата кодирования : UTC 2020-03-23 16:34:02
Программа кодирования : mkvmerge v7.8.0 ('River Man') 32bit built on Apr 3 2015 12:11:22
Библиотека кодирования : libebml v1.3.1 + libmatroska v1.4.2

Видео
Идентификатор : 1
Формат : AVC
Формат/Информация : Advanced Video Codec
Профиль формата : High@L4.1
Параметр CABAC формата : Да
Параметр ReFrames формата : 9 кадров
Идентификатор кодека : V_MPEG4/ISO/AVC
Продолжительность : 50 м.
Битрейт : 3500 Кбит/сек
Ширина : 1280 пикселей
Высота : 720 пикселей
Соотношение сторон : 16:9
Режим частоты кадров : Постоянный
Частота кадров : 25,000 кадров/сек
Цветовое пространство : YUV
Субдискретизация насыщенности : 4:2:0
Битовая глубина : 8 бит
Тип развёртки : Прогрессивная
Бит/(Пиксели*Кадры) : 0.152
Размер потока : 1,20 Гбайт (93%)
Библиотека кодирования : x264 core 146 r2538 121396c
Настройки программы : cabac=1 / ref=9 / deblock=1:-2:-1 / analyse=0x3:0x133 / me=umh / subme=9 / psy=1 / psy_rd=1.00:0.15 / mixed_ref=1 / me_range=32 / chroma_me=1 / trellis=2 / 8x8dct=1 / cqm=0 / deadzone=21,11 / fast_pskip=0 / chroma_qp_offset=-3 / threads=18 / lookahead_threads=3 / sliced_threads=0 / nr=0 / decimate=1 / interlaced=0 / bluray_compat=0 / constrained_intra=0 / bframes=9 / b_pyramid=2 / b_adapt=2 / b_bias=0 / direct=1 / weightb=1 / open_gop=0 / weightp=2 / keyint=250 / keyint_min=25 / scenecut=40 / intra_refresh=0 / rc=2pass / mbtree=0 / bitrate=3500 / ratetol=1.0 / qcomp=0.60 / qpmin=0 / qpmax=69 / qpstep=4 / cplxblur=20.0 / qblur=0.5 / ip_ratio=1.40 / pb_ratio=1.30 / aq=2:1.00
Default : Да
Forced : Нет
Основные цвета : BT.709
Характеристики трансфера : BT.709
Коэффициенты матрицы : BT.709

Аудио
Идентификатор : 2
Формат : AC-3
Формат/Информация : Audio Coding 3
Расширение режима : CM (complete main)
Параметр Endianness формата : Big
Идентификатор кодека : A_AC3
Продолжительность : 50 м.
Вид битрейта : Постоянный
Битрейт : 192 Кбит/сек
Каналы : 2 канала
Расположение каналов : Front: L R
Частота : 48,0 КГц
Битовая глубина : 16 бит
Метод сжатия : С потерями
Размер потока : 68,7 Мбайт (5%)
Default : Да
Forced : Нет

Информация о торренте:
Размер содержимого: 10.6 GB
Скачан: 200 раз
Статус: Проверен
Зарегистрирован на трекере: 2020-04-02 20:38
Скачать торрент


Поддержи раздачу — поставь лайк:
BLIZNEC W
2020-03-23 20:06
Интересного и приятного просмотра!!!

Мои раздачи
Писать комментарии на нашем торрент-трекере могут только зарегистрированные пользователи.
Зарегистрируйтесь или авторизируйтесь на сайте.