»
»

Скачать сериал Патриот (1-17 серии из 17) (Николай Бурлак) / [2020, комедия, WEBRip 720p] - торрент

Бесплатные торренты всегда на нашем сайте и в хорошем качестве! Сериал доступен на нашем торрент-трекере бесплатно, без регистрации и смс.

Статистика раздачи
0 [ 0 b/s ] ↑ 8.6 GB ↓ 0 [ 0 b/s ]
Автор Сообщение
BLIZNEC W
2020-03-11 09:54
Патриот (1-17 серии из 17)
Патриот Перевод: Не требуется, cубтитры: отсутствуют
Формат: WEBRip 720p, MKV, H.264, AC3
Страна: Россия
Режиссер: Николай Бурлак
Жанр: комедия
Всего серий: 17
Продолжительность: 17 x ~ 00:25:00
Год выпуска: 2020

В ролях: Антон Жижин, Анастасия Талызина, Алексей Базанов, Валентина Лукащук, Алёна Савастова, Дмитрий Журавлёв, Георгий Бергал, Евгения Капралова, Никита Тарасов, Григорий Дудник, Владимир Афанасьев (III) (Нигатив), Василий Березин, Владимир Сычёв, Юлианна Михневич, Галина Петрова, Вильма Кутавичюте

Описание: Спецназовец Саня Кучин вернулся со службы в родной городок, чтобы навести порядок. У Сани – честного и доброго солдата будто бы из русских сказок – есть мечта: он хочет, чтобы Россия стала лучшей страной на свете, и люди в ней жили хорошо. Саня – идеальный герой в неидеальном мире. Но есть у него и своя личная слабость – Ленка Сысарина. Кучин любит ее со школьных времен и думает, что девушку надо добиваться. Но реальная жизнь – это не армия, в которой все устроено четко по уставу – особенно в отношениях. Пока Саня пытается обратить на себя внимание Ленки, которой больше всего хотелось бы уехать в Москву и стать звездой, по нему сохнет Катюха – простоватая девица, готовая принять Саню любым, ведь для нее он – настоящий мужик, не то, что остальные: гопники, бывшие наркоманы, неплательщики алиментов. Порой Сане кажется, что перевоспитать земляков можно только кнутом, но вот незадача: он подал документы в академию ФСБ, а для того, чтобы пройти проверку, ему надо вести себя сдержанно. Сможет ли Кучин не поддаться искушению решать проблемы силой, разберется ли он в отношениях с женщинами и получится ли у него хоть на сантиметр приблизиться к благородной цели?

Рейтинг и доп. информация:


Видео: 1280x608, (2,105), 25 fps, AVC MPEG-4 (x264), High@L4.1 ~ 3000 kbps , 0.152 bit/pixel
Аудио: 48 kHz, AC3, 2/0 (L,R) ch, ~192.00 kbps avg
MediaInfo
Общее
Уникальный идентификатор : 172063466888599610449520612631105003450 (0x817237E3EC5D6BADA445C6EA053C5FBA)
Полное имя : C:\Patriot.(2020).WEB-DL.720p.ExKinoRay\Patriot.e01.(2020).WEB-DL.720p.ExKinoRay.mkv
Формат : Matroska
Версия формата : Version 2
Размер файла : 523 Мбайт
Продолжительность : 22 м. 54 с.
Общий поток : 3195 Кбит/сек
Дата кодирования : UTC 2020-03-15 01:59:04
Программа кодирования : mkvmerge v5.8.0 ('No Sleep / Pillow') built on Sep 2 2012 15:37:04
Библиотека кодирования : libebml v1.2.3 + libmatroska v1.3.0

Видео
Идентификатор : 1
Формат : AVC
Формат/Информация : Advanced Video Codec
Профиль формата : High@L4.1
Настройки формата : CABAC / 9 Ref Frames
Параметр CABAC формата : Да
Параметр RefFrames формата : 9 кадров
Идентификатор кодека : V_MPEG4/ISO/AVC
Продолжительность : 22 м. 54 с.
Битрейт : 3000 Кбит/сек
Ширина : 1280 пикселей
Высота : 608 пикселей
Соотношение сторон : 2,105
Режим частоты кадров : Постоянный
Частота кадров : 25,000 кадров/сек
Цветовое пространство : YUV
Субдискретизация насыщенности : 4:2:0
Битовая глубина : 8 бит
Тип развёртки : Прогрессивная
Бит/(Пиксели*Кадры) : 0.151
Размер потока : 481 Мбайт (92%)
Язык : Russian
Default : Да
Forced : Нет
Цветовой диапазон : Limited
Основные цвета : BT.709
Характеристики трансфера : BT.709
Коэффициенты матрицы : BT.709

Аудио
Идентификатор : 2
Формат : AC-3
Формат/Информация : Audio Coding 3
Коммерческое название : Dolby Digital
Идентификатор кодека : A_AC3
Продолжительность : 22 м. 54 с.
Вид битрейта : Постоянный
Битрейт : 192 Кбит/сек
Каналы : 2 канала
ChannelLayout : L R
Частота : 48,0 КГц
Частота кадров : 31,250 кадров/сек (1536 SPF)
Метод сжатия : С потерями
Размер потока : 31,4 Мбайт (6%)
Язык : Russian
ServiceKind/String : Complete Main
Default : Да
Forced : Нет

Информация о торренте:
Размер содержимого: 8.6 GB
Скачан: 169 раз
Статус: Проверен
Зарегистрирован на трекере: 2020-04-03 09:18
Скачать торрент


Поддержи раздачу — поставь лайк:
BLIZNEC W
2020-03-11 08:54
Интересного и приятного просмотра!!!

Мои раздачи
Писать комментарии на нашем торрент-трекере могут только зарегистрированные пользователи.
Зарегистрируйтесь или авторизируйтесь на сайте.