»
»

Скачать сериал Патриот (1-17 серии из 17) (Николай Бурлак) / [2020, комедия, WEBRip-AVC] - торрент

Торрент можно скачать, нажав синюю кнопку ниже. Сериал доступен на нашем торрент-трекере бесплатно, без регистрации и смс.

Статистика раздачи
0 [ 0 b/s ] ↑ 6.0 GB ↓ 0 [ 0 b/s ]
Автор Сообщение
BLIZNEC W
2020-03-11 08:57
Патриот (1-17 серии из 17)
Патриот Перевод: Не требуется, cубтитры: отсутствуют
Формат: WEBRip-AVC, MKV, H.264, AC3
Страна: Россия
Режиссер: Николай Бурлак
Жанр: комедия
Всего серий: 17
Продолжительность: 17 x ~ 00:25:00
Год выпуска: 2020

В ролях: Антон Жижин, Анастасия Талызина, Алексей Базанов, Валентина Лукащук, Алёна Савастова, Дмитрий Журавлёв, Георгий Бергал, Евгения Капралова, Никита Тарасов, Григорий Дудник, Владимир Афанасьев (III) (Нигатив), Василий Березин, Владимир Сычёв, Юлианна Михневич, Галина Петрова, Вильма Кутавичюте

Описание: Спецназовец Саня Кучин вернулся со службы в родной городок, чтобы навести порядок. У Сани – честного и доброго солдата будто бы из русских сказок – есть мечта: он хочет, чтобы Россия стала лучшей страной на свете, и люди в ней жили хорошо. Саня – идеальный герой в неидеальном мире. Но есть у него и своя личная слабость – Ленка Сысарина. Кучин любит ее со школьных времен и думает, что девушку надо добиваться. Но реальная жизнь – это не армия, в которой все устроено четко по уставу – особенно в отношениях. Пока Саня пытается обратить на себя внимание Ленки, которой больше всего хотелось бы уехать в Москву и стать звездой, по нему сохнет Катюха – простоватая девица, готовая принять Саню любым, ведь для нее он – настоящий мужик, не то, что остальные: гопники, бывшие наркоманы, неплательщики алиментов. Порой Сане кажется, что перевоспитать земляков можно только кнутом, но вот незадача: он подал документы в академию ФСБ, а для того, чтобы пройти проверку, ему надо вести себя сдержанно. Сможет ли Кучин не поддаться искушению решать проблемы силой, разберется ли он в отношениях с женщинами и получится ли у него хоть на сантиметр приблизиться к благородной цели?

Рейтинг и доп. информация:


Видео: 1024х490, (2,090), 25 fps, AVC MPEG-4 (x264), High@L4.1 ~ 2000 kbps , 0.159 bit/pixel
Аудио: 48 kHz, АС3, 2/0 (L,R), ~192.00 kbps avg
MediaInfo
Общее
Уникальный идентификатор : 180633027983362368912111918596371225944 (0x87E4A7DF7BF9DFA495A7866670B79D58)
Полное имя : G:Patriot.2020.WEB-DLRip.(AVC).ExKinoRayPatriot.E01.2020.WEB-DLRip.(AVC).ExKinoRay.mkv
Формат : Matroska
Версия формата : Version 2
Размер файла : 359 Мбайт
Продолжительность : 22 м. 54 с.
Общий поток : 2194 Кбит/сек
Дата кодирования : UTC 2020-03-10 15:29:20
Программа кодирования : mkvmerge v7.8.0 ('River Man') 32bit built on Apr 3 2015 12:11:22
Библиотека кодирования : libebml v1.3.1 + libmatroska v1.4.2

Видео
Идентификатор : 1
Формат : AVC
Формат/Информация : Advanced Video Codec
Профиль формата : High@L4.1
Настройки формата : CABAC / 10 Ref Frames
Параметр CABAC формата : Да
Параметр RefFrames формата : 10 кадров
Идентификатор кодека : V_MPEG4/ISO/AVC
Продолжительность : 22 м. 54 с.
Битрейт : 2000 Кбит/сек
Ширина : 1024 пикселя
Высота : 490 пикселей
Соотношение сторон : 2,090
Режим частоты кадров : Постоянный
Частота кадров : 25,000 кадров/сек
Цветовое пространство : YUV
Субдискретизация насыщенности : 4:2:0
Битовая глубина : 8 бит
Тип развёртки : Прогрессивная
Бит/(Пиксели*Кадры) : 0.159
Размер потока : 321 Мбайт (89%)
Библиотека кодирования : x264 core 146 r2538 121396c
Настройки программы : cabac=1 / ref=10 / deblock=1:-3:-3 / analyse=0x3:0x113 / me=umh / subme=11 / psy=1 / psy_rd=1.00:0.20 / mixed_ref=1 / me_range=32 / chroma_me=1 / trellis=2 / 8x8dct=1 / cqm=0 / deadzone=21,11 / fast_pskip=1 / chroma_qp_offset=-3 / threads=24 / lookahead_threads=7 / sliced_threads=0 / nr=0 / decimate=0 / interlaced=0 / bluray_compat=0 / constrained_intra=0 / bframes=11 / b_pyramid=2 / b_adapt=2 / b_bias=0 / direct=3 / weightb=1 / open_gop=0 / weightp=2 / keyint=250 / keyint_min=25 / scenecut=40 / intra_refresh=0 / rc_lookahead=60 / rc=2pass / mbtree=1 / bitrate=2000 / ratetol=1.0 / qcomp=0.60 / qpmin=0 / qpmax=69 / qpstep=4 / cplxblur=20.0 / qblur=0.5 / vbv_maxrate=14000 / vbv_bufsize=14000 / nal_hrd=none / filler=0 / ip_ratio=1.40 / aq=3:1.40
Default : Да
Forced : Нет
Цветовой диапазон : Limited
Основные цвета : BT.709
Характеристики трансфера : BT.709
Коэффициенты матрицы : BT.709

Аудио
Идентификатор : 2
Формат : AC-3
Формат/Информация : Audio Coding 3
Идентификатор кодека : A_AC3
Продолжительность : 22 м. 54 с.
Вид битрейта : Постоянный
Битрейт : 192 Кбит/сек
Каналы : 2 канала
Расположение каналов : Front: L R
Частота : 48,0 КГц
Частота кадров : 31,250 кадров/сек (1536 SPF)
Битовая глубина : 16 бит
Метод сжатия : С потерями
Размер потока : 31,4 Мбайт (9%)
Default : Да
Forced : Нет

Информация о торренте:
Размер содержимого: 6.0 GB
Скачан: 148 раз
Статус: Проверен
Зарегистрирован на трекере: 2020-04-03 09:15
Скачать торрент


Поддержи раздачу — поставь лайк:
BLIZNEC W
2020-03-11 07:57
Интересного и приятного просмотра!!!

Мои раздачи
Писать комментарии на нашем торрент-трекере могут только зарегистрированные пользователи.
Зарегистрируйтесь или авторизируйтесь на сайте.