»
»

Скачать сериал Корни (1-20 серии из 21) (Марк Горобец) / [2020, комедия, WEB-DL 1080p] - торрент

Скачать сериал бесплатно через торрент. Сериал доступен на нашем торрент-трекере бесплатно, без регистрации и смс.

Статистика раздачи
0 [ 0 b/s ] ↑ 16.9 GB ↓ 0 [ 0 b/s ]
Автор Сообщение
BLIZNEC W
2020-03-02 20:11
Корни (1-20 серии из 21)
Корни Перевод: Не требуется, cубтитры: отсутствуют
Формат: WEB-DL 1080p, MKV, H.264, AC3
Страна: Россия
Режиссер: Марк Горобец
Жанр: комедия
Всего серий: 21
Продолжительность: 20 х ~ 00:25:00
Год выпуска: 2020

В ролях: Марк Богатырёв, Наталья Скоморохова, Ксения Корнева, Ренат Мухамбаев, Елена Валюшкина, Сергей Бачурский, Никита Богатов, Анна Уколова, Антон Лапенко, Юлия Сулес, Александра Кузенкина, Сергей Чирков, Владимир Сычёв, Данила Якушев, Виктор Низовой, Тимур Родригез, Маша Шерстобитова, Максим Костромыкин, Наталья Громушкина, Сергей Цепов, Алексей Королёв, Ирина Бякова, Дмитрий смирнов, Максим Заболотний, Александр Печенин, Наталья Унгард, Сергей Друзьяк, Максим Коновалов, Константин Третьяков, Иван Павлов, Михаил Богдасаров, Александр Ревенко, Сергей Белов, Вадим Смирнов, Анастасия Балякина, Александр Никольский, анатолий Чистов, Николай Стародубцев, Михаил Чистов, Яна Прокопенко, татьяна Щанкин, Никита Манец, Кирилл Ключенко, Алла Лавлинская, Никита Богомолов, Виктория Добролюбова, Евгений Лавочкин, Светлана Иозефий, Ирина Аугшкап-Серова, Галина Новосёлова, сергей Карпов, Ирина Чипиженко, Людмила Пешехонова, Евгений Мундум, Алёна Максимова, Татьяна Лопырева, Михаил Павлик, Андрей Межулис, Василий Шевелилкин, Евгений Ратьков, Наталья Паршенкова, Алевтина Кокушкина

Описание: Столичному топ-менеджеру Диме Королёву приходится вернуться в родной Залещинск спустя десять лет, чтобы выкупить местный ДК для строительства торгового центра. Но на пути к бизнес-проекту встанет его бывшая девушка Алёна и по совместительству директор ДК, а также приставучие родственники, которые напомнят амбициозному парню о его корнях.

Рейтинг и доп. информация:


Видео: 1920x1080, (16:9), 25 fps, AVC MPEG-4 (x264), High@L4.1 ~ 5000 kbps , 0.096 bit/pixel
Аудио: 48 kHz, AC3, 2/0 (L,R) ch, ~192 kbps
Внимание! Раздача ведётся путём добавления новых серий
Внимание! Раздача ведётся путём добавления новых серий. При каждом добавлении создаётся новый торрент.
Чтобы начать докачку новой серии, пользователям необходимо сделать следующее:
1. Остановить скачивание.
2. Удалить старый торрент у себя из клиента (старые серии удалять не надо).
3. Скачать новый торрент и запустить его у себя в клиенте вместо старого, при этом указать клиенту путь в старую папку куда и должно происходить скачивание новых серий. Ваш клиент при этом должен произвести хеширование (проверку) старой папки и будет докачивать только те серии, которых у вас ещё нет. Старые серии при этом не удаляются, а продолжают раздаваться! Eсли вы уже удалили старые серии, то предотвратить повторную закачку старых серий можно, отжав галочку в соответствующих местах при запуске нового торрента.

MediaInfo
Общее
Уникальный идентификатор : 219083755128033736902723103453954881597 (0xA4D1FF163B7876ECA4C41A80F42EB83D)
Полное имя : C:\Korni.S01.2020.WEB-DL.(1080p).Getty\Korni.s01e01.2020.WEB-DL.(1080p).Getty.mkv
Формат : Matroska
Версия формата : Version 2
Размер файла : 933 Мбайт
Продолжительность : 25 м. 12 с.
Режим общего битрейта : Переменный
Общий поток : 5173 Кбит/сек
Дата кодирования : UTC 2020-03-02 12:48:25
Программа кодирования : mkvmerge v4.0.0 ('The Stars were mine') сборка от Jun 6 2010 16:18:42
Библиотека кодирования : libebml v1.0.0 + libmatroska v1.0.0

Видео
Идентификатор : 1
Формат : AVC
Формат/Информация : Advanced Video Codec
Профиль формата : High@L4.1
Настройки формата : CABAC / 5 Ref Frames
Параметр CABAC формата : Да
Параметр RefFrames формата : 5 кадров
Идентификатор кодека : V_MPEG4/ISO/AVC
Продолжительность : 25 м. 12 с.
Вид битрейта : Переменный
Битрейт : 5000 Кбит/сек
Максимальный битрейт : 40,0 Мбит/сек
Ширина : 1920 пикселей
Высота : 1080 пикселей
Соотношение сторон : 16:9
Режим частоты кадров : Постоянный
Частота кадров : 25,000 кадров/сек
Стандарт вещания : PAL
Цветовое пространство : YUV
Субдискретизация насыщенности : 4:2:0
Битовая глубина : 8 бит
Тип развёртки : Прогрессивная
Бит/(Пиксели*Кадры) : 0.096
Размер потока : 880 Мбайт (94%)
Язык : Russian
Default : Да
Forced : Нет
Цветовой диапазон : Limited
Основные цвета : BT.709
Характеристики трансфера : BT.709
Коэффициенты матрицы : BT.709

Аудио
Идентификатор : 2
Формат : AC-3
Формат/Информация : Audio Coding 3
Коммерческое название : Dolby Digital
Идентификатор кодека : A_AC3
Продолжительность : 25 м. 12 с.
Вид битрейта : Постоянный
Битрейт : 192 Кбит/сек
Каналы : 2 канала
ChannelLayout : L R
Частота : 48,0 КГц
Частота кадров : 31,250 кадров/сек (1536 SPF)
Метод сжатия : С потерями
Размер потока : 34,6 Мбайт (4%)
Язык : Russian
ServiceKind/String : Complete Main
Default : Да
Forced : Нет

Информация о торренте:
Размер содержимого: 16.9 GB
Скачан: 53 раза
Статус: Обновляемая раздача
Зарегистрирован на трекере: 2020-04-03 10:49
Скачать торрент


Поддержи раздачу — поставь лайк:
E-mail:
* Это обновляемая раздача и мы можем вас информировать об обновлении торрента в ней.

BLIZNEC W
2020-03-02 19:11
Интересного и приятного просмотра!!!

Мои раздачи
Писать комментарии на нашем торрент-трекере могут только зарегистрированные пользователи.
Зарегистрируйтесь или авторизируйтесь на сайте.