»
»

Скачать фильм Красавица и воры (1-2 серии из 2) (Андрей Силкин) / [2020, детектив, мелодрама, WEB-DLRip-AVC] - торрент

Торрент можно скачать, нажав синюю кнопку ниже. Фильм доступен на нашем торрент-трекере бесплатно, без регистрации и смс.

Статистика раздачи
0 [ 0 b/s ] ↑ 1.1 GB ↓ 0 [ 0 b/s ]
Автор Сообщение
BLIZNEC W
2020-02-15 01:14
Красавица и воры (1-2 серии из 2)
Красавица и воры Формат: WEB-DLRip-AVC, MKV, H.264, AC3
Режиссер: Андрей Силкин
Жанр: детектив, мелодрама
Продолжительность: 2 x ~ 00:42:58
Год выпуска: 2020

В ролях: Светлана Антонова, Максим Щёголев, Анастасия Панина, Анатолий Лобоцкий, Максим Коновалов, Михаил Дорожкин, Ирина Баринова, Вахтанг Беридзе, Елена Муравьёва, Александр Красовский, Андрей Наконечный, Иван Гришанов, Мария Долина, Юлия Юшина, Светлана Махалова, Артур Бичахчян, Ирина Крупмна, Александр Чернухин, Алексей Пахомов, Ренат Ямбенов, Людмила Маркина, Андрей Яцеев, Антонина Толстова, Ольга Устиничева, Людмила Лещенко, Тамара Сопина, Вадим Суханов, Виктория Мезенцева, Виктория Родина, Максим Арсентьев, Кирилл Бихтемиров, Елена Гусева, Людмила Жирнова, Аскар Жумабаев, Галина Стрельникова, Людмила Чуйко, Дмитрий Мещеряков, Павел Ермоленко, Юлия Неминущих, Роман Максимов, Павел Клинушкин, Никита Шишкин, Андрей Макаров, Ольга Одарченко, Ольга Мухина, Наталья Алёшина, Ирина Казакова, Валерия Маркович, Ольга Бикеева, Камиль Хамбеков, Наталья Беляева, Валерия Лаврова, Виктория Белозерцева, Руслан Сагимов, Елена Бурмистрова, Алина Титова, Илья Каюмов, Виталий Пименов, Геннадий Атянин, Ольга Бабенко, Юлдуза Тайсина, Анастасия Барьюк

Описание: Следователь прокуратуры Валерия отметила тридцатипятилетие и готовится получить очередное звание. Однако вместо повышения ее временно отстраняют от работы, поскольку пропало пустяковое дело, которое она вела. Валерия подавлена, и ее лучшая подруга Ася решает отправить ее в косметический салон. Там следователь узнает о таинственном обольстителе, похищающем не только драгоценности доверчивых дам, но и важные документы их мужчин. Она решает изловить преступника и с победой вернуться на службу.

Рейтинг и доп. информация:


Видео: 1024x576, (16:9), 25 fps, AVC MPEG-4 (x264), High@L4.1 ~ 1600 kbps , 0.109 bit/pixel
Аудио: 48 kHz, AC3, 2/0 (L,R) ch, ~192 kbps
MediaInfo
Общее
Уникальный идентификатор : 225616034696541548236672662879529843750 (0xA9BC1155CF36621BBD5B5E828FA7BC26)
Полное имя : C:\Красавица и воры.(2019).WEB-DLRip.(AVC).Files-x\01.Красавица и воры.(2018).WEB-DLRip.(AVC).by.Серый1779.Files-x.mkv
Формат : Matroska
Версия формата : Version 2
Размер файла : 551 Мбайт
Продолжительность : 42 м. 58 с.
Общий поток : 1793 Кбит/сек
Дата кодирования : UTC 2020-02-14 19:14:05
Программа кодирования : mkvmerge v7.8.0 ('River Man') 32bit built on Apr 3 2015 12:11:22
Библиотека кодирования : libebml v1.3.1 + libmatroska v1.4.2

Видео
Идентификатор : 1
Формат : AVC
Формат/Информация : Advanced Video Codec
Профиль формата : High@L4.1
Настройки формата : CABAC / 9 Ref Frames
Параметр CABAC формата : Да
Параметр RefFrames формата : 9 кадров
Идентификатор кодека : V_MPEG4/ISO/AVC
Продолжительность : 42 м. 58 с.
Битрейт : 1600 Кбит/сек
Ширина : 1024 пикселя
Высота : 576 пикселей
Соотношение сторон : 16:9
Режим частоты кадров : Постоянный
Частота кадров : 25,000 кадров/сек
Цветовое пространство : YUV
Субдискретизация насыщенности : 4:2:0
Битовая глубина : 8 бит
Тип развёртки : Прогрессивная
Бит/(Пиксели*Кадры) : 0.109
Размер потока : 481 Мбайт (87%)
Библиотека кодирования : x264 core 146 r2538 121396c
Настройки программы : cabac=1 / ref=9 / deblock=1:-2:-1 / analyse=0x3:0x133 / me=umh / subme=9 / psy=1 / psy_rd=1.00:0.15 / mixed_ref=1 / me_range=32 / chroma_me=1 / trellis=2 / 8x8dct=1 / cqm=0 / deadzone=21,11 / fast_pskip=0 / chroma_qp_offset=-3 / threads=18 / lookahead_threads=3 / sliced_threads=0 / nr=0 / decimate=1 / interlaced=0 / bluray_compat=0 / constrained_intra=0 / bframes=9 / b_pyramid=2 / b_adapt=2 / b_bias=0 / direct=1 / weightb=1 / open_gop=0 / weightp=2 / keyint=250 / keyint_min=25 / scenecut=40 / intra_refresh=0 / rc=2pass / mbtree=0 / bitrate=1600 / ratetol=1.0 / qcomp=0.60 / qpmin=0 / qpmax=69 / qpstep=4 / cplxblur=20.0 / qblur=0.5 / ip_ratio=1.40 / pb_ratio=1.30 / aq=2:1.00
Default : Да
Forced : Нет
Цветовой диапазон : Limited
Основные цвета : BT.709
Характеристики трансфера : BT.709
Коэффициенты матрицы : BT.709

Аудио
Идентификатор : 2
Формат : AC-3
Формат/Информация : Audio Coding 3
Коммерческое название : Dolby Digital
Идентификатор кодека : A_AC3
Продолжительность : 42 м. 58 с.
Вид битрейта : Постоянный
Битрейт : 192 Кбит/сек
Каналы : 2 канала
ChannelLayout : L R
Частота : 48,0 КГц
Частота кадров : 31,250 кадров/сек (1536 SPF)
Метод сжатия : С потерями
Размер потока : 59,0 Мбайт (11%)
ServiceKind/String : Complete Main
Default : Да
Forced : Нет

Информация о торренте:
Размер содержимого: 1.1 GB
Скачан: 445 раз
Статус: Проверен
Зарегистрирован на трекере: 2020-02-15 00:14
Скачать торрент


Поддержи раздачу — поставь лайк:
BLIZNEC W
2020-02-15 00:14
Интересного и приятного просмотра!!!

Мои раздачи
Писать комментарии на нашем торрент-трекере могут только зарегистрированные пользователи.
Зарегистрируйтесь или авторизируйтесь на сайте.