»
»

Скачать фильм Самые шокирующие гипотезы. Страна уходит в отрыв (Эфир от 14.02.2020) (Рен ТВ) / [2020, документальный, WEB-DL 1080р] - торрент

Скачать через торрент фильм вы можете, нажав на синюю кнопку. Фильм доступен на нашем торрент-трекере бесплатно, без регистрации и смс.

Статистика раздачи
0 [ 0 b/s ] ↑ 1011.4 MB ↓ 0 [ 0 b/s ]
Автор Сообщение
kupper2201
2020-02-14 19:37
Самые шокирующие гипотезы. Страна уходит в отрыв (Эфир от 14.02.2020)
Самые шокирующие гипотезы. Страна уходит в отрыв
Перевод: Не требуется, cубтитры: отсутствуют
Формат: WEB-DL 1080р, MP4, AVC, AAC
Страна: Россия
Режиссер: Артемий Гринчевский
Жанр: документальный
Продолжительность: ~ 00:50:00
Год выпуска: 2020

Описание: "Самые шокирующие гипотезы" - документальный проект телеканала "Рен ТВ"! Мы дадим новые ответы на старые вопросы и зададим свои. Факты, о которых долго молчали наши коллеги-журналисты, и независимая оценка событий, изменивших мир. Расследования самых сенсационных историй и свежий взгляд на, казалось бы, общеизвестные исторические факты. Поиск закономерностей и параллелей в самых невероятных явлениях нашей жизни, новости из всех областей человеческих знаний и загадки потаённых уголков нашего подсознания.

В выпуске:
Почему каждую пятницу русский человек уходит в отрыв?
С пользой ли мы проводим?
Как можно выпустить пар без драки?
Почему мы любим на выходных что-то поделать руками?


Видео: 1920x1080 (16:9), 25 fps, AVC Baseline@L3, ~2768 Kbps (0.053 bit/pixel)
Аудио: 48 kHz, AAC, 2/0 (L,R) ch, ~192.00 kbps avg

Доп. информация:
Скриншоты взяты с предыдущих выпусков.

Mediainfo
Общее
Полное имя : G:\Самые шокирующие гипотезы 14.02.20_(1080р).mp4
Формат : MPEG-4
Профиль формата : Base Media
Идентификатор кодека : isom (isom/iso2/avc1/mp41)
Размер файла : 1011 Мбайт
Продолжительность : 47 м. 58 с.
Общий поток : 2948 Кбит/сек
Программа кодирования : Lavf57.37.101

Видео
Идентификатор : 1
Формат : AVC
Формат/Информация : Advanced Video Codec
Профиль формата : Baseline@L3
Настройки формата : 1 Ref Frames
Параметр CABAC формата : Нет
Параметр RefFrames формата : 1 кадр
Идентификатор кодека : avc1
Идентификатор кодека/Информация : Advanced Video Coding
Продолжительность : 47 м. 58 с.
Битрейт : 2768 Кбит/сек
Ширина : 1920 пикселей
Высота : 1080 пикселей
Соотношение сторон : 16:9
Режим частоты кадров : Постоянный
Частота кадров : 25,000 кадров/сек
Цветовое пространство : YUV
Субдискретизация насыщенности : 4:2:0
Битовая глубина : 8 бит
Тип развёртки : Прогрессивная
Бит/(Пиксели*Кадры) : 0.053
Размер потока : 944 Мбайт (93%)
Библиотека кодирования : x264 core 148 r2694 3b70645
Настройки программы : cabac=0 / ref=1 / deblock=1:0:0 / analyse=0x1:0x111 / me=hex / subme=7 / psy=1 / psy_rd=1.00:0.00 / mixed_ref=0 / me_range=16 / chroma_me=1 / trellis=1 / 8x8dct=0 / cqm=0 / deadzone=21,11 / fast_pskip=1 / chroma_qp_offset=-2 / threads=30 / lookahead_threads=5 / sliced_threads=0 / nr=0 / decimate=1 / interlaced=0 / bluray_compat=0 / constrained_intra=0 / bframes=0 / weightp=0 / keyint=250 / keyint_min=25 / scenecut=40 / intra_refresh=0 / rc_lookahead=40 / rc=abr / mbtree=1 / bitrate=2768 / ratetol=1.0 / qcomp=0.60 / qpmin=0 / qpmax=69 / qpstep=4 / ip_ratio=1.40 / aq=1:1.00

Аудио
Идентификатор : 2
Формат : AAC
Формат/Информация : Advanced Audio Codec
Профиль формата : LC
Идентификатор кодека : mp4a-40-2
Продолжительность : 47 м. 58 с.
Вид битрейта : Постоянный
Битрейт : 192 Кбит/сек
Каналы : 2 канала
Расположение каналов : Front: L R
Частота : 48,0 КГц
Частота кадров : 46,875 кадров/сек (1024 SPF)
Метод сжатия : С потерями
Размер потока : 65,8 Мбайт (7%)
Default : Да
AlternateGroup/String : 1

Прочее
Идентификатор : 3
Тип : Time code
Формат : QuickTime TC
Продолжительность : 47 м. 58 с.
Временной код первого кадра : 00:00:00:00
Временной код, чередующийся : Да
Язык : English
Default : Нет

Информация о торренте:
Размер содержимого: 1011.4 MB
Скачан: 257 раз
Статус: Проверен
Зарегистрирован на трекере: 2020-02-14 18:37
Скачать торрент


Поддержи раздачу — поставь лайк:
Писать комментарии на нашем торрент-трекере могут только зарегистрированные пользователи.
Зарегистрируйтесь или авторизируйтесь на сайте.