»
»

Скачать сериал Моими глазами (1-19 серии из 19) (Заур Болотаев) / [2013, Триллер, мистика, WEB-DL 720р] - торрент

Торрент можно скачать, нажав синюю кнопку ниже. Сериал доступен на нашем торрент-трекере бесплатно, без регистрации и смс.

Статистика раздачи
0 [ 0 b/s ] ↑ 9.2 GB ↓ 0 [ 0 b/s ]
Автор Сообщение
Astarot999
2020-02-14 19:17
Моими глазами (1-19 серии из 19)
Моими глазами Формат: WEB-DL, MKV, H.264, AC3
Режиссер: Заур Болотаев
Жанр: Триллер, мистика
Продолжительность: 19 x ~ 00:23:00
Год выпуска: 2013
В ролях: Анатолий Горячев, Дмитрий Готсдинер, Александр Бобров, Ирина Денисова, Константин Шелестун, Дмитрий Поднозов, Макар Запорожский, Вячеслав Чепурченко, Павел Ясенок, Лилия Разакова
Описание:
В секретной лаборатории, где ученые пытаются продлить жизнь и проводят эксперименты — происходит сбой. После этого в городе начинают происходить странные события. На одном из выпускных балов происходит трагедия. При очень странных обстоятельствах погибает одиннадцатиклассница Катя Чунина. А незадолго до этого без вести пропадает ее молодой человек Максим Волков. Последний раз его видели утром в больнице, из которой он сбежал, выпрыгнув из окна четвертого этажа и оставшись невредимым. Оказывается у Максима была капсула, которую он прятал. Одноклассники погибшей девушки, их родственники и друзья, следователь СКП Самарин, врач «скорой» Лиза, «индивидуалка» Вера и другие жители городка — все хотя расследовать это происшествие и все следы в конце концов ведут в тайную лабораторию.



Видео: 1280x720 (16:9), 25 fps, AVC High@L3.1 ~2891 kbps avg, 0.125 bit/pixel
Аудио: 48 kHz, AC3, 2/0 (L,R) ch, ~192.00 kbps avg

MI
Общее
Уникальный идентификатор : 310044155521904774320587636121007589014 (0xE9405512EF975E7AFA026BC20E988696)
Полное имя : D:\Моими глазами (2013).by.Алехаndr\Моими глазами. 01 серия. Красавчик (глазами Леши).by.Алехаndr.mkv
Формат : Matroska
Версия формата : Version 4
Размер файла : 574 Мбайт
Продолжительность : 25 м. 30 с.
Режим общего битрейта : Переменный
Общий поток : 3146 Кбит/сек
Программа кодирования : Lavf57.71.100
Библиотека кодирования : Lavf57.71.100
ErrorDetectionType : Per level 1

Видео
Идентификатор : 1
Формат : AVC
Формат/Информация : Advanced Video Codec
Профиль формата : High@L3.1
Настройки формата : CABAC / 1 Ref Frames
Параметр CABAC формата : Да
Параметр RefFrames формата : 1 кадр
Параметр GOP формата : M=1, N=50
Идентификатор кодека : V_MPEG4/ISO/AVC
Продолжительность : 25 м. 30 с.
Вид битрейта : Переменный
Битрейт : 2891 Кбит/сек
Максимальный битрейт : 3000 Кбит/сек
Ширина : 1280 пикселей
Высота : 720 пикселей
Соотношение сторон : 16:9
Режим частоты кадров : Постоянный
Частота кадров : 25,000 кадров/сек
Цветовое пространство : YUV
Субдискретизация насыщенности : 4:2:0
Битовая глубина : 8 бит
Тип развёртки : Прогрессивная
Бит/(Пиксели*Кадры) : 0.125
Размер потока : 528 Мбайт (92%)
Default : Да
Forced : Нет

Аудио
Идентификатор : 2
Формат : AC-3
Формат/Информация : Audio Coding 3
Коммерческое название : Dolby Digital
Идентификатор кодека : A_AC3
Продолжительность : 25 м. 30 с.
Вид битрейта : Постоянный
Битрейт : 192 Кбит/сек
Каналы : 2 канала
ChannelLayout : L R
Частота : 48,0 КГц
Частота кадров : 31,250 кадров/сек (1536 SPF)
Битовая глубина : 32 бит
Метод сжатия : С потерями
Размер потока : 35,0 Мбайт (6%)
ServiceKind/String : Complete Main
Default : Да
Forced : Нет

Информация о торренте:
Размер содержимого: 9.2 GB
Скачан: 433 раза
Статус: Проверен
Зарегистрирован на трекере: 2020-02-14 18:17
Скачать торрент


Поддержи раздачу — поставь лайк:
Писать комментарии на нашем торрент-трекере могут только зарегистрированные пользователи.
Зарегистрируйтесь или авторизируйтесь на сайте.