»
»

Скачать фильм Отец солдата (Резо Чхеидзе) / [1964, военный, драма, HDTVRip-AVC] - торрент

Нажмите на синюю кнопку, чтобы скачать фильм через торрент бесплатно. Фильм доступен на нашем торрент-трекере бесплатно, без регистрации и смс.

Статистика раздачи
0 [ 0 b/s ] ↑ 1.5 GB ↓ 0 [ 0 b/s ]
Автор Сообщение
BLIZNEC W
2020-02-13 16:33
Отец солдата
Отец солдата Формат: HDTVRip-AVC, MKV, H.264, AC3
Режиссер: Резо Чхеидзе
Жанр: военный, драма
Продолжительность: 01:26:36
Год выпуска: 1964

В ролях: Серго Закариадзе, Владимир Привальцев, Александр Назаров, Александр Лебедев, Владимир Колокольцев, Ю. Дроздов, Иван Косых, Виктор Косых, Виктор Уральский, Кетеван (Кето) Бочоришвили, Владимир Пицек, Пётр Любешкин, Татьяна Решетникова, Николай Бармин

Описание: Противоестественность войны для человека – труженика, созидателя – показана на примере судьбы старого крестьянина-виноградаря из Грузии. Георгий Махарашвили едет повидаться с сыном, который ранен и находится в госпитале. Но пока отец добирается до места назначения, сын снова отправляется на фронт. Однако Георгий уже не может вернуться в родное село. Он вместе с советской армией проходит весь ее путь – путь до Берлина, до Победы над фашизмом. И только в последние дни войны находит сына. Увы, встреча эта была последней...

Рейтинг и доп. информация:


Видео: 1024x576->695, (3:2), 25 fps, AVC MPEG-4 (x264), High@L4.1 ~ 2217 kbps , 0.150 bit/pixel
Аудио: 48 kHz, AC3, 2/0 (L,R) ch, ~192 kbps
MediaInfo
Общее
Полное имя : Otec.soldata.1964.HDTVRip-AVC_[New-team]_by_AVP_Studio.mkv
Формат : Matroska
Версия формата : Version 2
Размер файла : 1,46 Гбайт
Продолжительность : 1 ч. 26 м.
Общий поток : 2411 Кбит/сек
Дата кодирования : UTC 2020-02-10 17:32:52
Программа кодирования : mkvmerge v6.9.1 ('Blue Panther') 32bit built on Apr 18 2014 18:15:44
Библиотека кодирования : libebml v1.3.0 + libmatroska v1.4.1

Видео
Идентификатор : 1
Формат : AVC
Формат/Информация : Advanced Video Codec
Профиль формата : High@L4.1
Настройки формата : CABAC / 10 Ref Frames
Параметр CABAC формата : Да
Параметр RefFrames формата : 10 кадров
Идентификатор кодека : V_MPEG4/ISO/AVC
Продолжительность : 1 ч. 26 м.
Битрейт : 2217 Кбит/сек
Ширина : 1024 пикселя
Высота : 576 пикселей
Соотношение сторон : 3:2
Соотношение сторон в оригинале : 3:2
Режим частоты кадров : Постоянный
Частота кадров : 25,000 кадров/сек
Цветовое пространство : YUV
Субдискретизация насыщенности : 4:2:0
Битовая глубина : 8 бит
Тип развёртки : Прогрессивная
Бит/(Пиксели*Кадры) : 0.150
Размер потока : 1,31 Гбайт (90%)
Библиотека кодирования : x264 core 159 r2991 1771b55
Настройки программы : cabac=1 / ref=10 / deblock=1:-3:-2 / analyse=0x3:0x113 / me=umh / subme=10 / psy=1 / psy_rd=1.00:0.00 / mixed_ref=1 / me_range=32 / chroma_me=1 / trellis=2 / 8x8dct=1 / cqm=0 / deadzone=21,11 / fast_pskip=1 / chroma_qp_offset=-2 / threads=6 / lookahead_threads=1 / sliced_threads=0 / nr=0 / decimate=0 / interlaced=0 / bluray_compat=0 / constrained_intra=0 / bframes=8 / b_pyramid=2 / b_adapt=2 / b_bias=0 / direct=3 / weightb=1 / open_gop=0 / weightp=2 / keyint=250 / keyint_min=25 / scenecut=40 / intra_refresh=0 / rc_lookahead=40 / rc=2pass / mbtree=1 / bitrate=2217 / ratetol=1.0 / qcomp=0.60 / qpmin=0 / qpmax=69 / qpstep=4 / cplxblur=20.0 / qblur=0.5 / ip_ratio=1.40 / aq=1:1.00
Default : Да
Forced : Нет

Аудио
Идентификатор : 2
Формат : AC-3
Формат/Информация : Audio Coding 3
Коммерческое название : Dolby Digital
Идентификатор кодека : A_AC3
Продолжительность : 1 ч. 26 м.
Вид битрейта : Постоянный
Битрейт : 192 Кбит/сек
Каналы : 2 канала
ChannelLayout : L R
Частота : 48,0 КГц
Частота кадров : 31,250 кадров/сек (1536 SPF)
Битовая глубина : 16 бит
Метод сжатия : С потерями
Размер потока : 119 Мбайт (8%)
Default : Да
Forced : Нет

Информация о торренте:
Размер содержимого: 1.5 GB
Скачан: 131 раз
Статус: Проверен
Зарегистрирован на трекере: 2020-02-13 15:33
Скачать торрент


Поддержи раздачу — поставь лайк:
BLIZNEC W
2020-02-13 15:33
Интересного и приятного просмотра!!!

Мои раздачи
Писать комментарии на нашем торрент-трекере могут только зарегистрированные пользователи.
Зарегистрируйтесь или авторизируйтесь на сайте.