»
»

Скачать сериал Большие надежды (1-8 серии из 8) (Юлия Краснова) / [2019, мелодрама, HDTVRip 720p] - торрент

Нажмите на синюю кнопку, чтобы скачать сериал через торрент бесплатно. Сериал доступен на нашем торрент-трекере бесплатно, без регистрации и смс.

Статистика раздачи
0 [ 0 b/s ] ↑ 10.7 GB ↓ 0 [ 0 b/s ]
Автор Сообщение
BLIZNEC W
2020-02-11 21:15
Большие надежды (1-8 серии из 8)
Большие надежды Перевод: Не требуется, cубтитры: отсутствуют
Формат: HDTVRip 720p, MKV, H.264, AC3
Страна: Россия
Режиссер: Юлия Краснова
Жанр: мелодрама
Всего серий: 8
Продолжительность: 8 x ~ 00:50:00
Год выпуска: 2019

В ролях: Татьяна Бабенкова, Анфиса Черных, Олег Гаас, Евгений Антропов, Василий Симонов, Джульетта Геринг-Казакевич, Ян Цапник, Елена Яковлева, Леонид Громов, Алексей Демидов, Евгений Сахаров (II), Никита Лобанов, Владимир Курцеба, Кирилл Жандаров, Даниил Белых, Кирилл Сафонов, Максим Онищенко, Артём Осипов, Наталья Селиверстова, Виктория Верберг, Наталья Качалкина, Екатерина Шевченко, Семён Лопатин, Артём Фадеев, Сергей Ракша, Константин Новиков, Иван Рудаков, Чеслав Головинец, Илья Гавриленков, Джалил Асретов, Розалия Каюмова, Екатерина Кожемякина, Сергей Фролов, Елизавета Водолазская, Иван Замотаев, Кирилл Ермичев, Виктория Райкова, Ольга Сташкевич, Татьяна Селиверстова, Дарья Пашкова, Сергей Лактюнькин, Александр Горшков, Наталья Жернакова, Нина Красильникова

Описание: Жизнь в богатстве или любовь в шалаше? Сделать выбор не просто. И даже если ты уже разобрался в себе, своих желаниях и принципах, жизнь подкидывает свои сюрпризы. История любви и невосполнимых потерь на фоне жизни страны последних тридцати лет. Юные Эра и Зина, окрыленные большими надеждами, наперекор советам родителей, отправляются в город за своей мечтой. Они многое пройдут рука об руку, смогут по-настоящему подружиться, похоронят наивность и иллюзии, переживут взлёты и падения. Поймут, что главное в жизни – сохранить любовь и веру в людей и надежду на лучшее – несмотря ни на что.

Рейтинг и доп. информация:


Видео: 1280х720, (16:9), 25 fps, AVC MPEG-4 (x264), High@L4.1 ~ 3500 kbps , 0.152 bit/pixel
Аудио: 48 kHz, AC3, 2/0 (L,R) ch, ~192 kbps
MediaInfo
Общее
Уникальный идентификатор : 187173577772504697580270478844920364413 (0x8CD051DFEBD23376B7531CC2C6EC7D7D)
Полное имя : C:\Bolshie.nadezhdy.2019.HDTVRip.(720p).ExKinoRay\Bolshie.nadezhdy.E01.2019.HDTVRip.(720p).ExKinoRay.mkv
Формат : Matroska
Версия формата : Version 4
Размер файла : 1,34 Гбайт
Продолжительность : 51 м. 48 с.
Общий поток : 3694 Кбит/сек
Дата кодирования : UTC 2020-02-11 16:04:41
Программа кодирования : mkvmerge v6.9.1 ('Blue Panther') 64bit built on Apr 18 2014 18:23:38
Библиотека кодирования : libebml v1.3.0 + libmatroska v1.4.1

Видео
Идентификатор : 1
Формат : AVC
Формат/Информация : Advanced Video Codec
Профиль формата : High@L4.1
Настройки формата : CABAC / 9 Ref Frames
Параметр CABAC формата : Да
Параметр RefFrames формата : 9 кадров
Идентификатор кодека : V_MPEG4/ISO/AVC
Продолжительность : 51 м. 48 с.
Битрейт : 3500 Кбит/сек
Ширина : 1280 пикселей
Высота : 720 пикселей
Соотношение сторон : 16:9
Режим частоты кадров : Постоянный
Частота кадров : 25,000 кадров/сек
Цветовое пространство : YUV
Субдискретизация насыщенности : 4:2:0
Битовая глубина : 8 бит
Тип развёртки : Прогрессивная
Бит/(Пиксели*Кадры) : 0.152
Размер потока : 1,24 Гбайт (93%)
Библиотека кодирования : x264 core 146 r2538 121396c
Настройки программы : cabac=1 / ref=9 / deblock=1:-3:-3 / analyse=0x3:0x113 / me=umh / subme=11 / psy=1 / psy_rd=1.00:0.20 / mixed_ref=1 / me_range=32 / chroma_me=1 / trellis=2 / 8x8dct=1 / cqm=0 / deadzone=21,11 / fast_pskip=1 / chroma_qp_offset=-3 / threads=24 / lookahead_threads=10 / sliced_threads=0 / nr=0 / decimate=0 / interlaced=0 / bluray_compat=0 / constrained_intra=0 / bframes=10 / b_pyramid=2 / b_adapt=2 / b_bias=0 / direct=3 / weightb=1 / open_gop=0 / weightp=2 / keyint=250 / keyint_min=25 / scenecut=40 / intra_refresh=0 / rc_lookahead=60 / rc=2pass / mbtree=1 / bitrate=3500 / ratetol=1.0 / qcomp=0.60 / qpmin=0 / qpmax=69 / qpstep=4 / cplxblur=20.0 / qblur=0.5 / vbv_maxrate=14000 / vbv_bufsize=14000 / nal_hrd=none / filler=0 / ip_ratio=1.40 / aq=3:1.40
Default : Нет
Forced : Нет
Цветовой диапазон : Limited
Основные цвета : BT.709
Характеристики трансфера : BT.709
Коэффициенты матрицы : BT.709

Аудио
Идентификатор : 2
Формат : AC-3
Формат/Информация : Audio Coding 3
Коммерческое название : Dolby Digital
Идентификатор кодека : A_AC3
Продолжительность : 51 м. 48 с.
Вид битрейта : Постоянный
Битрейт : 192 Кбит/сек
Каналы : 2 канала
ChannelLayout : L R
Частота : 48,0 КГц
Частота кадров : 31,250 кадров/сек (1536 SPF)
Метод сжатия : С потерями
Размер потока : 71,1 Мбайт (5%)
Язык : Russian
ServiceKind/String : Complete Main
Default : Да
Forced : Да

Информация о торренте:
Размер содержимого: 10.7 GB
Скачан: 313 раз
Статус: Проверен
Зарегистрирован на трекере: 2020-02-14 22:52
Скачать торрент


Поддержи раздачу — поставь лайк:
BLIZNEC W
2020-02-11 20:15
Интересного и приятного просмотра!!!

Мои раздачи


Писать комментарии на нашем торрент-трекере могут только зарегистрированные пользователи.
Зарегистрируйтесь или авторизируйтесь на сайте.