»
»

Скачать фильм Одиночество (Всеволод Воронин) / [1964, история, WEB-DLRip-AVC] - торрент

Скачать фильм через торрент бесплатно. Фильм доступен на нашем торрент-трекере бесплатно, без регистрации и смс.

Статистика раздачи
0 [ 0 b/s ] ↑ 2.2 GB ↓ 0 [ 0 b/s ]
Автор Сообщение
Ua_PIRAT
2020-02-11 15:48
Одиночество
Одиночество Формат: WEB-DLRip-AVC, MKV, H.264, AC3
Режиссер: Всеволод Воронин
Жанр: история
Продолжительность: 02:18:24
Год выпуска: 1964

В ролях: Александр Граве, Алексей Головин (II), Николай Лебедев (II), Виктор Бубнов, Глеб Глебов, Евгений Шутов, Виктор Егоров, Александра Завьялова, Пётр Глебов, Афанасий Кочетков, Владимир Балашов и др.

Описание: По одноименному роману Николая Вирты. О борьбе с контрреволюцией на Тамбовщине в первые годы советской власти.

Видео: 1024->1355х576 (2,35:1), 24,000 fps, H264 ~ 2059 kbps avg, 0.145 bit/pixel
Аудио: 48 kHz, Dolby Digital AC3 2.0, 192 kbps



MediaInfo
Общее
Полное имя : Odinochestvo.1964.WEB-DLRip-AVC_[New-team]_by_AVP_Studio.mkv
Формат : Matroska
Версия формата : Version 2
Размер файла : 2,18 Гбайт
Продолжительность : 2 ч. 18 м.
Общий поток : 2253 Кбит/сек
Дата кодирования : UTC 2020-02-09 21:24:10
Программа кодирования : mkvmerge v6.9.1 ('Blue Panther') 32bit built on Apr 18 2014 18:15:44
Библиотека кодирования : libebml v1.3.0 + libmatroska v1.4.1

Видео
Идентификатор : 1
Формат : AVC
Формат/Информация : Advanced Video Codec
Профиль формата : High@L4.1
Настройки формата : CABAC / 10 Ref Frames
Параметр CABAC формата : Да
Параметр RefFrames формата : 10 кадров
Идентификатор кодека : V_MPEG4/ISO/AVC
Продолжительность : 2 ч. 18 м.
Битрейт : 2059 Кбит/сек
Ширина : 1024 пикселя
Высота : 576 пикселей
Соотношение сторон : 2,35:1
Соотношение сторон в оригинале : 2,35:1
Режим частоты кадров : Постоянный
Частота кадров : 24,000 кадра/сек
Цветовое пространство : YUV
Субдискретизация насыщенности : 4:2:0
Битовая глубина : 8 бит
Тип развёртки : Прогрессивная
Бит/(Пиксели*Кадры) : 0.145
Размер потока : 1,95 Гбайт (89%)
Библиотека кодирования : x264 core 159 r2991 1771b55
Настройки программы : cabac=1 / ref=10 / deblock=1:-3:-2 / analyse=0x3:0x113 / me=umh / subme=10 / psy=1 / psy_rd=1.00:0.00 / mixed_ref=1 / me_range=32 / chroma_me=1 / trellis=2 / 8x8dct=1 / cqm=0 / deadzone=21,11 / fast_pskip=1 / chroma_qp_offset=-2 / threads=6 / lookahead_threads=1 / sliced_threads=0 / nr=0 / decimate=0 / interlaced=0 / bluray_compat=0 / constrained_intra=0 / bframes=8 / b_pyramid=2 / b_adapt=2 / b_bias=0 / direct=3 / weightb=1 / open_gop=0 / weightp=2 / keyint=240 / keyint_min=24 / scenecut=40 / intra_refresh=0 / rc_lookahead=40 / rc=2pass / mbtree=1 / bitrate=2059 / ratetol=1.0 / qcomp=0.60 / qpmin=0 / qpmax=69 / qpstep=4 / cplxblur=20.0 / qblur=0.5 / ip_ratio=1.40 / aq=1:1.00
Default : Да
Forced : Нет

Аудио
Идентификатор : 2
Формат : AC-3
Формат/Информация : Audio Coding 3
Коммерческое название : Dolby Digital
Идентификатор кодека : A_AC3
Продолжительность : 2 ч. 18 м.
Вид битрейта : Постоянный
Битрейт : 192 Кбит/сек
Каналы : 2 канала
ChannelLayout : L R
Частота : 48,0 КГц
Частота кадров : 31,250 кадров/сек (1536 SPF)
Битовая глубина : 16 бит
Метод сжатия : С потерями
Размер потока : 190 Мбайт (9%)
Default : Да
Forced : Нет



Информация о торренте:
Размер содержимого: 2.2 GB
Скачан: 153 раза
Статус: Проверен
Зарегистрирован на трекере: 2020-02-11 14:48
Скачать торрент


Поддержи раздачу — поставь лайк:
Ua_PIRAT
2020-02-11 15:21
Всем
Писать комментарии на нашем торрент-трекере могут только зарегистрированные пользователи.
Зарегистрируйтесь или авторизируйтесь на сайте.