»
»

Скачать фильм Москва-Кассиопея (Ричард Викторов) / [1973, семейный, фантастика, приключения, DVDRip-HEVC] - торрент

Скачать бесплатный торрент фильм. Фильм доступен на нашем торрент-трекере бесплатно, без регистрации и смс.

Статистика раздачи
0 [ 0 b/s ] ↑ 2.2 GB ↓ 0 [ 0 b/s ]
Автор Сообщение
BLIZNEC W
2020-02-11 13:09
Москва-Кассиопея
Москва-Кассиопея Формат: DVDRip-HEVC, MKV, H.265, AC3
Режиссер: Ричард Викторов
Жанр: семейный, фантастика, приключения
Продолжительность: 01:19:52
Год выпуска: 1973

В ролях: Иннокентий Смоктуновский, Василий Меркурьев, Лев Дуров, Юрий Медведев, Пётр Меркурьев, Миша Ершов, Саша Григорьев (III), Володя Савин, Владимир Басов (младший), Ольга Битюкова, Надежда Овчарова, Ирина Савина

Описание: Из глубин Вселенной до Земли долетает радиосигнал из планетной системы звезды Альфа созвездия Кассиопеи, посланный разумными существами. В соответствии с проектом Виктора Середы, к Альфе Кассиопеи отправляется экспедиция. Ввиду того, что полет займет очень много времени, команда формируется из подростков не старше 14 лет, чтобы к концу полета, экипаж составляли космонавты в самом расцвете сил. Из за безответственного поведения космического зайца Лобанова, корабль оказывается у конечной цели значительно раньше намеченного срока. Смогут ли юные герои выполнить свою миссию?

Рейтинг и доп. информация:


Видео: 1024x55, (2,35:1), 25 fps, HEVC (x265), Main 10@L4.1@High ~ 3481 kbps , 0.245 bit/pixel
Аудио: 48 kHz, AC3 Dolby Digital, 3/2 (L,C,R,l,r) + LFE ch, ~448 kbps
MediaInfo
Формат : Matroska
Версия формата : Version 4
Размер файла : 2,19 Гбайт
Продолжительность : 1 ч. 19 м.
Общий поток : 3931 Кбит/сек
Название фильма : Москва-Кассиопея (1973) Encoded_by_M@kSIMus
Дата кодирования : UTC 2020-02-11 03:10:47
Программа кодирования : mkvmerge v43.0.0 ('The Quartermaster') 64-bit
Библиотека кодирования : libebml v1.3.10 + libmatroska v1.5.2
Обложка : Yes
Attachments : cover.jpg

Видео
Идентификатор : 1
Формат : HEVC
Формат/Информация : High Efficiency Video Coding
Профиль формата : Main 10@L4.1@High
Идентификатор кодека : V_MPEGH/ISO/HEVC
Продолжительность : 1 ч. 19 м.
Битрейт : 3481 Кбит/сек
Ширина : 1024 пикселя
Высота : 554 пикселя
Соотношение сторон : 2,35:1
Режим частоты кадров : Постоянный
Частота кадров : 25,000 кадров/сек
Цветовое пространство : YUV
Субдискретизация насыщенности : 4:2:0
Битовая глубина : 10 бит
Бит/(Пиксели*Кадры) : 0.245
Размер потока : 1,94 Гбайт (89%)
Библиотека кодирования : x265 3.2+5-354901970679:[Windows][clang 8.0.1][64 bit] 10bit
Настройки программы : cpuid=1049583 / frame-threads=5 / numa-pools=4 / wpp / no-pmode / no-pme / no-psnr / no-ssim / log-level=3 / input-csp=1 / input-res=1024x554 / interlace=0 / total-frames=0 / level-idc=41 / high-tier=1 / uhd-bd=0 / ref=5 / allow-non-conformance / no-repeat-headers / annexb / no-aud / no-hrd / info / hash=0 / no-temporal-layers / open-gop / min-keyint=25 / keyint=250 / gop-lookahead=0 / bframes=9 / b-adapt=2 / b-pyramid / bframe-bias=0 / rc-lookahead=40 / lookahead-slices=0 / scenecut=40 / radl=0 / no-splice / no-intra-refresh / ctu=32 / min-cu-size=8 / no-rect / no-amp / max-tu-size=32 / tu-inter-depth=4 / tu-intra-depth=4 / limit-tu=1 / rdoq-level=1 / dynamic-rd=0.00 / no-ssim-rd / signhide / no-tskip / nr-intra=0 / nr-inter=0 / no-constrained-intra / no-strong-intra-smoothing / max-merge=5 / limit-refs=1 / no-limit-modes / me=3 / subme=7 / merange=57 / temporal-mvp / no-frame-dup / no-hme / weightp / no-weightb / no-analyze-src-pics / deblock=-3:-3 / no-sao / no-sao-non-deblock / rd=6 / selective-sao=0 / early-skip / no-rskip / no-fast-intra / no-tskip-fast / no-cu-lossless / b-intra / no-splitrd-skip / rdpenalty=0 / psy-rd=2.00 / psy-rdoq=1.00 / no-rd-refine / no-lossless / cbqpoffs=0 / crqpoffs=0 / rc=crf / crf=20.0 / qcomp=0.60 / qpstep=4 / stats-write=0 / stats-read=0 / vbv-maxrate=50000 / vbv-bufsize=50000 / vbv-init=0.9 / crf-max=0.0 / crf-min=0.0 / ipratio=1.40 / pbratio=1.30 / aq-mode=3 / aq-strength=1.00 / no-cutree / zone-count=0 / no-strict-cbr / qg-size=32 / no-rc-grain / qpmax=69 / qpmin=0 / no-const-vbv / sar=255 / sar-width / : / sar-height=255:202 / overscan=0 / videoformat=5 / range=0 / colorprim=2 / transfer=2 / colormatrix=2 / chromaloc=0 / display-window=0 / cll=0,0 / min-luma=0 / max-luma=1023 / log2-max-poc-lsb=8 / vui-timing-info / vui-hrd-info / slices=1 / no-opt-qp-pps / no-opt-ref-list-length-pps / no-multi-pass-opt-rps / scenecut-bias=0.05 / no-opt-cu-delta-qp / no-aq-motion / no-hdr / no-hdr-opt / no-dhdr10-opt / no-idr-recovery-sei / analysis-reuse-level=5 / scale-factor=0 / refine-intra=0 / refine-inter=0 / refine-mv=1 / refine-ctu-distortion=0 / no-limit-sao / ctu-info=0 / no-lowpass-dct / refine-analysis-type=0 / copy-pic=1 / max-ausize-factor=1.0 / no-dynamic-refine / no-single-sei / no-hevc-aq / no-svt / no-field / qp-adaptation-range=1.00
Язык : Russian
Default : Да
Forced : Нет
Цветовой диапазон : Limited

Аудио
Идентификатор : 2
Формат : AC-3
Формат/Информация : Audio Coding 3
Коммерческое название : Dolby Digital
Идентификатор кодека : A_AC3
Продолжительность : 1 ч. 19 м.
Вид битрейта : Постоянный
Битрейт : 448 Кбит/сек
Каналы : 6 каналов
ChannelLayout : L R C LFE Ls Rs
Частота : 48,0 КГц
Частота кадров : 31,250 кадров/сек (1536 SPF)
Битовая глубина : 16 бит
Метод сжатия : С потерями
Размер потока : 256 Мбайт (11%)
Заголовок : Оригинал
Язык : Russian
Default : Да
Forced : Нет

Меню
00:00:00.040 : :Chapter 01
00:03:47.280 : :Chapter 02
00:12:13.200 : :Chapter 03
00:19:07.960 : :Chapter 04
00:27:18.120 : :Chapter 05
00:31:38.520 : :Chapter 06
00:39:57.880 : :Chapter 07
00:45:12.360 : :Chapter 08
00:49:09.280 : :Chapter 09
00:54:11.240 : :Chapter 10
00:58:39.000 : :Chapter 11
01:07:28.560 : :Chapter 12

Информация о торренте:
Размер содержимого: 2.2 GB
Скачан: 122 раза
Статус: Проверен
Зарегистрирован на трекере: 2020-02-11 12:09
Скачать торрент


Поддержи раздачу — поставь лайк:
BLIZNEC W
2020-02-11 12:09
Интересного и приятного просмотра!!!

Мои раздачи
Писать комментарии на нашем торрент-трекере могут только зарегистрированные пользователи.
Зарегистрируйтесь или авторизируйтесь на сайте.