»
»

Скачать фильм Выстрел в тумане (Анатолий Бобровский, Александр Серый) / [1964, Детектив, DVBRip-AVC] - торрент

Скачать через торрент фильм вы можете, нажав на синюю кнопку. Фильм доступен на нашем торрент-трекере бесплатно, без регистрации и смс.

Статистика раздачи
0 [ 0 b/s ] ↑ 2.0 GB ↓ 0 [ 0 b/s ]
Автор Сообщение
ярусс
2020-02-10 19:21
Выстрел в тумане
Выстрел в тумане Формат: DVBRip-AVC, MKV, H.264, MP3
Страна: СССР
Режиссер: Анатолий Бобровский, Александр Серый
Жанр: Детектив
Продолжительность: 01:21:29
Год выпуска: 1964
В ролях: Владимир Краснопольский, Лионелла Пырьева, Юрий Горобец, Роман Хомятов, Бруно Оя, Михаил Майоров, Владимир Колчин, Борис Кожухов, Андрей Файт, Николай Рушковский, Виктор Байков, Галина Шостко
Описание:
Публикация работы молодого ученого Игоря Пантелеева произвела сенсацию. Его исследованиями заинтересовалась иностранная разведка. Вскоре имя Пантелеева исчезло со страниц газет и журналов, а в одном из НИИ появился новый сотрудник — Евдокимов…

[imdb=http://www.imdb.com/title/tt0314861/]
Видео: 684 => @747x560 (4:3) 25.00 fps, MPEG4 AVC (x264) High@L4.1, 3354 kbps avg, 0.350 bit/pixel
Аудио: 48.0 kHz, MP3, 2/0 (L,R) ch, 192 kbps



МИ
General
Complete name : D:\Выстрел в тумане_(1963)_DVBRip-AVC.2gb.mkv
Format : Matroska
File size : 2.02 GiB
Duration : 1h 21mn
Overall bit rate : 3 549 Kbps
Encoded date : UTC 2020-02-08 15:31:23
Writing application : Lavf55.11.101
Writing library : Lavf55.11.101

Video
ID : 1
Format : AVC
Format/Info : Advanced Video Codec
Format profile : High@L4.1
Format settings, CABAC : Yes
Format settings, ReFrames : 7 frames
Codec ID : V_MPEG4/ISO/AVC
Duration : 1h 21mn
Bit rate : 3 354 Kbps
Width : 684 pixels
Height : 560 pixels
Display aspect ratio : 4:3
Original display aspect ratio : 4:3
Frame rate mode : Variable
Frame rate : 25.000 fps
Color space : YUV
Chroma subsampling : 4:2:0
Bit depth : 8 bits
Scan type : Progressive
Bits/(Pixel*Frame) : 0.350
Stream size : 1.87 GiB (93%)
Writing library : x264 core 135 r2345
Encoding settings : cabac=1 / ref=7 / deblock=1:-1:-1 / analyse=0x3:0x113 / me=umh / subme=10 / psy=1 / psy_rd=1.00:0.20 / mixed_ref=0 / me_range=16 / chroma_me=1 / trellis=2 / 8x8dct=1 / cqm=0 / deadzone=21,11 / fast_pskip=0 / chroma_qp_offset=-3 / threads=3 / lookahead_threads=1 / sliced_threads=0 / nr=0 / decimate=0 / interlaced=0 / bluray_compat=0 / constrained_intra=0 / bframes=6 / b_pyramid=2 / b_adapt=2 / b_bias=0 / direct=3 / weightb=1 / open_gop=0 / weightp=2 / keyint=250 / keyint_min=25 / scenecut=40 / intra_refresh=0 / rc_lookahead=60 / rc=2pass / mbtree=1 / bitrate=3354 / ratetol=1.0 / qcomp=0.60 / qpmin=10 / qpmax=69 / qpstep=4 / cplxblur=20.0 / qblur=0.5 / vbv_maxrate=24000 / vbv_bufsize=24000 / nal_hrd=none / ip_ratio=1.40 / aq=2:0.80

Audio
ID : 2
Format : MPEG Audio
Format version : Version 1
Format profile : Layer 3
Codec ID : A_MPEG/L3
Codec ID/Hint : MP3
Duration : 1h 21mn
Bit rate mode : Constant
Bit rate : 192 Kbps
Channel(s) : 2 channels
Sampling rate : 48.0 KHz
Bit depth : 16 bits
Stream size : 112 MiB (5%)
Language : Russian


Информация о торренте:
Размер содержимого: 2.0 GB
Скачан: 217 раз
Статус: Проверен
Зарегистрирован на трекере: 2020-02-10 18:21
Скачать торрент


Поддержи раздачу — поставь лайк:
ярусс
2020-02-10 18:28
Раздача мультитреккерная.

Рип с DVB.TS*
Писать комментарии на нашем торрент-трекере могут только зарегистрированные пользователи.
Зарегистрируйтесь или авторизируйтесь на сайте.