»
»

Скачать фильм Казаки-разбойники (Валентин Козачков) / [1979, детский, приключения, DVDRip-AVC] - торрент

Скачать фильм бесплатно через торрент. Фильм доступен на нашем торрент-трекере бесплатно, без регистрации и смс.

Статистика раздачи
0 [ 0 b/s ] ↑ 1.5 GB ↓ 0 [ 0 b/s ]
Автор Сообщение
BLIZNEC W
2020-02-09 23:11
Казаки-разбойники
Казаки-разбойники Формат: DVDRip-AVC, MKV, H.264, AC3
Режиссер: Валентин Козачков
Жанр: детский, приключения
Продолжительность: 01:02:10
Год выпуска: 1979

В ролях: Василий Руснак, Сергей Рожевенко, Таня Наумова, Руслан Михневич, Алеша Мишин, Пётр Куприянец, Юрий Кордонский, Олег Панфилов, Николай Сектименко, Олег Корчиков, Георгий Дрозд, Лидия Королёва, Валентин Букин, Степан Крылов

Описание: Приключенческий фильм по мотивам повести П. Берна "Лошадь без головы". Мальчишки есть мальчишки… Их всегда влекут к себе тайна и риск. Их игры иногда настолько тесно вплетаются в реальную жизнь, что перестают быть безопасными. Но разве смогли бы они помочь выследить и обезвредить банду преступников, если бы были иными по натуре? И если бы с ними не было удивительной девчонки – повелительницы всех окрестных собак…

Рейтинг и доп. информация:


Видео: 696->742x572, (4:3), 25 fps, AVC MPEG-4 (x264), High@L4 ~ 3091 kbps , 0.311 bit/pixel
Аудио: 48 kHz, AC3, 2/0 (L,R) ch, ~256 kbps
MediaInfo
Общее
Уникальный идентификатор : 216583545963133849665847895514433997226 (0xA2F07941FDC3E1CDA12E1FE920E049AA)
Полное имя : C:\Kazaki-razboyniki.1979.{am}.742.Rus.mkv
Формат : Matroska
Версия формата : Version 2
Размер файла : 1,45 Гбайт
Продолжительность : 1 ч. 2 м.
Режим общего битрейта : Переменный
Общий поток : 3349 Кбит/сек
Название фильма : Казаки-разбойники (1979) - Rip by -{am}-
Дата кодирования : UTC 2020-01-27 01:40:52
Программа кодирования : mkvmerge v7.8.0 ('River Man') 32bit built on Apr 3 2015 12:11:22
Библиотека кодирования : libebml v1.3.1 + libmatroska v1.4.2
Attachments : poster.jpg

Видео
Идентификатор : 1
Формат : AVC
Формат/Информация : Advanced Video Codec
Профиль формата : High@L4
Настройки формата : CABAC / 15 Ref Frames
Параметр CABAC формата : Да
Параметр RefFrames формата : 15 кадров
Идентификатор кодека : V_MPEG4/ISO/AVC
Продолжительность : 1 ч. 2 м.
Вид битрейта : Переменный
Битрейт : 3091 Кбит/сек
Максимальный битрейт : 25,0 Мбит/сек
Ширина : 696 пикселей
Высота : 572 пикселя
Соотношение сторон : 1,297
Соотношение сторон в оригинале : 1,298
Режим частоты кадров : Постоянный
Частота кадров : 25,000 кадров/сек
Цветовое пространство : YUV
Субдискретизация насыщенности : 4:2:0
Битовая глубина : 8 бит
Тип развёртки : Прогрессивная
Бит/(Пиксели*Кадры) : 0.311
Размер потока : 1,31 Гбайт (90%)
Заголовок : Kazaki-razboyniki.1979.{am}.742.Rus
Библиотека кодирования : x264 core 159 r2991+49 524a90c t_mod_New [0-bit@all X86_64]
Настройки программы : cabac=1 / ref=15 / deblock=1:-3:-3 / analyse=0x3:0x113 / me=umh / subme=11 / psy=1 / fade_compensate=0.00 / psy_rd=1.00:0.10 / mixed_ref=1 / me_range=64 / chroma_me=1 / trellis=2 / 8x8dct=1 / cqm=2 / deadzone=21,11 / fast_pskip=0 / chroma_qp_offset=-3 / threads=18 / lookahead_threads=3 / sliced_threads=0 / nr=0 / decimate=0 / interlaced=0 / bluray_compat=0 / constrained_intra=0 / fgo=0 / bframes=9 / b_pyramid=2 / b_adapt=2 / b_bias=0 / direct=3 / weightb=1 / open_gop=0 / weightp=2 / keyint=250 / keyint_min=25 / scenecut=40 / intra_refresh=0 / rc_lookahead=60 / rc=2pass / mbtree=0 / bitrate=3091 / ratetol=1.0 / qcomp=0.60 / qpmin=0:0:0 / qpmax=69:69:69 / qpstep=4 / cplxblur=20.0 / qblur=0.5 / vbv_maxrate=25000 / vbv_bufsize=31250 / nal_hrd=vbr / filler=0 / ip_ratio=1.40 / pb_ratio=1.30 / aq=3:1.00 / aq-sensitivity=10.00 / aq-factor=1.00:1.00:1.00 / aq2=1:0.50 / aq2-sensitivity=15.00 / aq2-factor=1.00:1.00:1.00 / aq3=2:[0.50:0.50]:[0.50:0.50]:[0.50:0.50]:[0.50:0.50] / aq3-sensitivity=10.00 / aq3-factor=[1.00:1.00]:[1.00:1.00]:[1.00:1.00] / aq3-boundary=205:56:9
Язык : Russian
Default : Да
Forced : Нет

Аудио
Идентификатор : 2
Формат : AC-3
Формат/Информация : Audio Coding 3
Коммерческое название : Dolby Digital
Идентификатор кодека : A_AC3
Продолжительность : 1 ч. 2 м.
Вид битрейта : Постоянный
Битрейт : 256 Кбит/сек
Каналы : 2 канала
ChannelLayout : L R
Частота : 48,0 КГц
Частота кадров : 31,250 кадров/сек (1536 SPF)
Метод сжатия : С потерями
Размер потока : 114 Мбайт (8%)
Язык : Russian
ServiceKind/String : Complete Main
Default : Да
Forced : Нет

Меню
00:00:00.000 : :Глава 1
00:10:00.000 : :Глава 2
00:18:00.000 : :Глава 3
00:26:00.000 : :Глава 4
00:34:00.000 : :Глава 5
00:42:00.000 : :Глава 6

Информация о торренте:
Размер содержимого: 1.5 GB
Скачан: 201 раз
Статус: Проверен
Зарегистрирован на трекере: 2020-02-09 22:11
Скачать торрент


Поддержи раздачу — поставь лайк:
BLIZNEC W
2020-02-09 22:11
Интересного и приятного просмотра!!!

Мои раздачи
Писать комментарии на нашем торрент-трекере могут только зарегистрированные пользователи.
Зарегистрируйтесь или авторизируйтесь на сайте.